<?xml version="1.0" standalone="no"?>
<!DOCTYPE svg PUBLIC "-//W3C//DTD SVG 1.1//EN" "http://www.w3.org/Graphics/SVG/1.1/DTD/svg11.dtd">
<svg xmlns="http://www.w3.org/2000/svg">
<metadata>Generated by Fontastic.me</metadata>
<defs>
<font id="untitled-font-16" horiz-adv-x="512">
<font-face font-family="untitled-font-16" units-per-em="512" ascent="480" descent="-32"/>
<missing-glyph horiz-adv-x="512" />

<glyph glyph-name="1" unicode="&#97;" d="M66 144l387 0 0-26-387 0z m400 286l-413 0c-14 0-25-11-25-25l0-298c0-14 11-25 25-25l413 0c13 0 25 11 25 25l0 298c0 14-12 25-25 25z m-290-26l167 0c3 0 6-3 6-6 0-4-3-7-6-7l-167 0c-4 0-7 3-7 7 0 3 3 6 7 6z m-72 0c3 0 6-3 6-6 0-4-3-7-6-7-4 0-7 3-7 7 0 3 3 6 7 6z m-23 0c4 0 7-3 7-6 0-4-3-7-7-7-3 0-6 3-6 7 0 3 3 6 6 6z m-21 0c3 0 6-3 6-6 0-4-3-7-6-7-4 0-7 3-7 7 0 3 3 6 7 6z m417-298c0-6-5-11-11-11l-413 0c-7 0-12 5-12 11l0 259 437 0 0-259z m-411 229l0-164 387 0 0 164z m210-132l-27 0 0 70c-6-3-6-2-19-3l0 15c13 0 18 0 24 8 1 1 2 2 3 2l19 0z"/>
<glyph glyph-name="2" unicode="&#98;" d="M59 144l387 0 0-26-387 0z m403 286l-412 0c-14 0-25-11-25-25l0-298c0-14 11-25 25-25l412 0c14 0 25 11 25 25l0 298c0 14-11 25-25 25z m-289-26l166 0c4 0 7-3 7-6 0-4-3-7-7-7l-166 0c-4 0-7 3-7 7 0 3 3 6 7 6z m-73 0c4 0 7-3 7-6 0-4-3-7-7-7-3 0-6 3-6 7 0 3 3 6 6 6z m-22 0c4 0 7-3 7-6 0-4-3-7-7-7-4 0-6 3-6 7 0 3 3 6 6 6z m-22 0c4 0 7-3 7-6 0-4-3-7-7-7-3 0-6 3-6 7 0 3 3 6 6 6z m418-298c0-6-5-11-12-11l-412 0c-7 0-12 5-12 11l0 259 437 0 0-259z m-415 229l0-164 387 0 0 164z m164-118l-138 0 0 32 138 0z m0 52l-138 0 0 33 138 0z m177-66l-65 0 0 17c13 8 28 20 36 31 4 6 6 11 6 19 0 6-1 13-9 13-8 0-10-6-10-13 0-3-1-5 0-8l-23 1 0 4c0 20 13 32 34 32 17 0 32-10 32-29 0-23-21-37-37-49l36 0z"/>
<glyph glyph-name="3" unicode="&#99;" d="M65 164l85 0 0-52-85 0z m98 0l86 0 0-52-86 0z m99 0l85 0 0-52-85 0z m98 0l86 0 0-52-86 0z m102 266l-412 0c-14 0-25-11-25-25l0-298c0-14 11-25 25-25l412 0c14 0 25 11 25 25l0 298c0 14-11 25-25 25z m-289-26l166 0c4 0 7-3 7-6 0-4-3-7-7-7l-166 0c-4 0-7 3-7 7 0 3 3 6 7 6z m-73 0c4 0 7-3 7-6 0-4-3-7-7-7-3 0-6 3-6 7 0 3 3 6 6 6z m-22 0c4 0 7-3 7-6 0-4-3-7-7-7-4 0-6 3-6 7 0 3 3 6 6 6z m-22 0c4 0 7-3 7-6 0-4-3-7-7-7-3 0-6 3-6 7 0 3 3 6 6 6z m418-298c0-6-5-11-12-11l-412 0c-7 0-12 5-12 11l0 259 437 0 0-259z m-408 242l0-164 387 0 0 164z m226-117c-6-12-18-16-31-16-20 0-31 12-31 32l0 1 20 2c0-2 0-3 0-4 0-7 3-14 11-14 8 0 12 6 12 14 0 9-2 12-10 12-1 0 0 0 0 0l0 16c0 0-2-1-1-1 7 0 10 4 10 11 0 6-4 11-10 11-8 0-11-7-10-13l-22 1c2 20 13 29 32 29 11 0 22-3 27-13 2-4 4-8 4-12 0-7-3-13-9-17-2-2-4-3-7-4 12-2 18-10 18-22 0-4-1-9-3-13z"/>
<glyph glyph-name="4" unicode="&#100;" d="M256 335l190 0 0-99-190 0z m0-118l190 0 0-99-190 0z m206 213l-412 0c-14 0-25-11-25-25l0-298c0-14 11-25 25-25l412 0c14 0 25 11 25 25l0 298c0 14-11 25-25 25z m-289-26l166 0c4 0 7-3 7-6 0-4-3-7-7-7l-166 0c-4 0-7 3-7 7 0 3 3 6 7 6z m-73 0c4 0 7-3 7-6 0-4-3-7-7-7-3 0-6 3-6 7 0 3 3 6 6 6z m-22 0c4 0 7-3 7-6 0-4-3-7-7-7-4 0-6 3-6 7 0 3 3 6 6 6z m-22 0c4 0 7-3 7-6 0-4-3-7-7-7-3 0-6 3-6 7 0 3 3 6 6 6z m418-298c0-6-5-11-12-11l-412 0c-7 0-12 5-12 11l0 259 437 0 0-259z m-330 117l0 11c0 7 1 16 2 24-7-13-15-28-23-35z m-85 112l0-217 171 0 0 217z m118-132l-13 0 0-19-20 0 0 19-37 0 0 17 39 56 18 0 0-53 13 0z"/>
<glyph glyph-name="4-1" unicode="&#101;" d="M373 155c21 0 38-17 38-39 0-22-17-40-38-40-21 0-38 18-38 40 0 22 17 39 38 39m-234 143c21 0 38-18 38-40 0-22-17-39-38-39-21 0-38 17-38 39 0 22 17 40 38 40m234 142c21 0 38-17 38-39 0-22-17-40-38-40-21 0-38 18-38 40 0 22 17 39 38 39m4 32c-40 0-73-32-73-71 0-8 1-15 3-22l-120-66c-13 10-29 17-46 17-40 0-73-33-73-72 0-39 33-71 73-71 17 0 33 6 46 16l120-66c-2-7-3-14-3-21 0-40 33-72 73-72 40 0 72 32 72 72 0 39-32 71-72 71-21 0-39-8-52-21l-117 63c4 9 6 19 6 29 0 11-2 20-6 29l117 64c13-13 31-21 52-21 40 0 72 32 72 71 0 39-32 71-72 71"/>
<glyph glyph-name="4-2" unicode="&#102;" d="M389 379c-25 46-70 75-122 79-7 0-15 0-22 0-52-4-97-33-122-79-25-48-24-105 3-152l120-158c2-4 6-6 10-6 4 0 8 2 10 6l120 158c27 47 28 104 3 152z m-23-140l-110-141-110 141c-23 39-24 88-2 129 21 39 58 63 102 66 3 0 7 1 10 1 3 0 7-1 10-1 44-3 81-27 102-66 22-41 21-90-2-129z m-110 127c-32 0-58-26-58-57 0-32 26-58 58-58 32 0 58 26 58 58 0 31-26 57-58 57z m0-91c-19 0-34 15-34 34 0 19 15 34 34 34 19 0 34-15 34-34 0-19-15-34-34-34z"/>
<glyph glyph-name="5" unicode="&#103;" d="M243 335l92 0 0-99-92 0z m0-118l203 0 0-40-203 0z m0-66l203 0 0-33-203 0z m111 184l92 0 0-99-92 0z m108 95l-412 0c-14 0-25-11-25-25l0-298c0-14 11-25 25-25l412 0c14 0 25 11 25 25l0 298c0 14-11 25-25 25z m-289-26l166 0c4 0 7-3 7-6 0-4-3-7-7-7l-166 0c-4 0-7 3-7 7 0 3 3 6 7 6z m-73 0c4 0 7-3 7-6 0-4-3-7-7-7-3 0-6 3-6 7 0 3 3 6 6 6z m-22 0c4 0 7-3 7-6 0-4-3-7-7-7-4 0-6 3-6 7 0 3 3 6 6 6z m-22 0c4 0 7-3 7-6 0-4-3-7-7-7-3 0-6 3-6 7 0 3 3 6 6 6z m418-298c0-6-5-11-12-11l-412 0c-7 0-12 5-12 11l0 259 437 0 0-259z m-415 229l0-217 164 0 0 217z m86-154c-20 0-31 12-32 32l22 1c0-8 2-16 11-16 9 0 11 10 11 18 0 7-2 16-12 16-5 0-8-3-9-8l-19 3 5 49 54 0-1-20-36 0-2-16c4 4 9 6 15 6 18 0 28-14 28-31 0-20-15-34-35-34z"/>
<glyph glyph-name="5-1" unicode="&#104;" d="M422 258c0 86-73 157-163 157-90 0-163-71-163-157 0-86 73-157 163-157 90 0 163 71 163 157z m33 0c0-4 0-8 0-12-6-100-92-180-196-180-108 0-196 86-196 192 0 106 88 191 196 191 108 0 196-85 196-191z m-177-29l-77 0 0 42 45 0 0 121 32 0z"/>
<glyph glyph-name="5-2" unicode="&#105;" d="M258 79c-97 0-176 80-176 179 0 99 79 179 176 179 97 0 176-80 176-179 0-99-79-179-176-179m0 410c-125 0-226-104-226-231 0-127 101-231 226-231 125 0 226 104 226 231 0 127-101 231-226 231m-13-255l-50 59-35-42 85-100 134 159-35 42z"/>
<glyph glyph-name="pulzo-font-ball" unicode="&#106;" d="M371 297l-97 74-97-74 37-120 120 0z m-115 215c-141 0-256-115-256-256 0-141 115-256 256-256 141 0 256 115 256 256 0 68-27 133-75 181-48 48-113 75-181 75z m-60-470l-39 78-85 13c-23 34-36 73-38 114l63 61-15 85c25 32 58 57 97 71l77-41 77 41c38-14 72-39 97-71l-15-85 63-61c-2-41-15-80-37-114l-86-13-39-78c-39-11-81-11-120 0z"/>
<glyph glyph-name="categorias" unicode="&#107;" d="M125 399c-7 0-12-5-12-12l0-86c0-6 5-12 12-12l86 0c6 0 12 6 12 12l0 86c0 7-6 12-12 12z m0 25l86 0c20 0 36-17 36-37l0-86c0-20-16-36-36-36l-86 0c-20 0-37 16-37 36l0 86c0 20 17 37 37 37z m0-201c-7 0-12-6-12-12l0-86c0-7 5-12 12-12l86 0c6 0 12 5 12 12l0 86c0 6-6 12-12 12z m0 24l86 0c20 0 36-16 36-36l0-86c0-20-16-37-36-37l-86 0c-20 0-37 17-37 37l0 86c0 20 17 36 37 36z m176 152c-6 0-12-5-12-12l0-86c0-6 6-12 12-12l86 0c7 0 12 6 12 12l0 86c0 7-5 12-12 12z m0 25l86 0c20 0 37-17 37-37l0-86c0-20-17-36-37-36l-86 0c-20 0-36 16-36 36l0 86c0 20 16 37 36 37z m0-201c-6 0-12-6-12-12l0-86c0-7 6-12 12-12l86 0c7 0 12 5 12 12l0 86c0 6-5 12-12 12z m0 24l86 0c20 0 37-16 37-36l0-86c0-20-17-37-37-37l-86 0c-20 0-36 17-36 37l0 86c0 20 16 36 36 36z"/>
<glyph glyph-name="character" unicode="&#108;" d="M235 403c46 0 93-51 93-105 0-54-47-104-93-104-45 0-92 50-92 104-1 54 47 105 92 105m0 41c-73 0-133-69-133-146 0-49 25-95 62-122-60-20-102-64-130-114l35-20c34 60 82 105 166 105 85 0 133-45 166-105l35 20c-28 50-70 94-130 114 37 27 62 73 62 122 0 77-60 146-133 146"/>
<glyph glyph-name="circle-1" unicode="&#109;" d="M348 261c0 50-40 91-89 91-49 0-89-41-89-91 0-50 40-91 89-91 49 0 89 41 89 91z m-89-126c68 0 123 56 123 126 0 70-55 126-123 126-68 0-123-56-123-126 0-70 55-126 123-126z m0-26c-82 0-148 68-148 152 0 84 66 152 148 152 82 0 149-68 149-152 0-84-67-152-149-152z m0-35c101 0 182 84 182 187 0 103-81 187-182 187-100 0-182-84-182-187 0-103 82-187 182-187z m0-26c-115 0-208 96-208 213 0 117 93 213 208 213 115 0 208-96 208-213 0-117-93-213-208-213z"/>
<glyph glyph-name="pulzo-font-clima" unicode="&#110;" d="M293 484c-9 0-16-7-16-16l0-65c0-6 3-11 8-14 5-3 12-3 17 0 5 3 8 8 8 14l0 65c0 4-2 8-5 11-3 3-7 5-12 5z m102-27c-6 0-12-3-15-8l-32-56c-3-5-3-11 0-16 3-5 8-8 14-8 6 0 11 3 14 8l33 56c3 5 3 11 0 16-3 5-8 8-14 8z m-203 0c-6 0-11-3-14-8-3-5-3-11 0-16l33-56c3-5 8-8 14-8 6 0 11 3 14 8 3 5 3 11 0 16l-33 56c-3 5-8 8-14 8z m-73-73c-1 0-1 0-2 0-7-1-13-6-15-13-1-7 2-14 8-17l57-33c5-3 11-3 16 0 6 3 9 8 9 14 0 6-4 11-9 14l-56 33c-3 1-5 2-8 2z m349 0c-3 0-6-1-8-2l-56-33c-6-3-9-8-9-14 0-6 3-11 8-14 6-3 12-3 17 0l57 33c6 3 9 11 7 18-2 8-9 12-16 12z m-178-21c-4 0-9-1-14-1-32-6-60-28-73-58-9 4-20 6-31 6 0 0 0 0 0 0-52 0-92-40-97-90-43-12-75-48-75-93 0-54 46-99 101-99l283 0c39 0 72 32 72 72 0 35-27 61-61 67-2 17-9 34-19 47 1 1 1 2 2 4 19 32 17 73-5 104-19 27-50 42-83 41z m11-33c18-2 35-11 46-27 13-19 15-44 5-65-15 10-33 17-53 17-13 0-25-6-37-11-7 17-17 31-30 43 8 22 27 39 50 43 6 1 13 1 19 0z m128-47c-9 0-16-8-16-17 1-9 8-15 17-15l65 0c6 0 12 3 15 8 3 5 3 11 0 16-3 5-9 8-15 8l-65 0c0 0-1 0-1 0z m-257-5c33 0 61-23 67-55 1-5 4-9 9-12 5-2 11-1 15 1 11 7 23 10 36 10 38 0 68-30 68-67 0-9 8-16 17-16 22 0 40-17 40-39 0-22-18-40-40-40l-283 0c-38 0-68 30-68 67 0 33 24 61 57 67 8 1 14 8 13 17 0 37 31 67 69 67z m239-62c-8-1-14-6-15-13-2-7 1-14 8-18l56-32c8-4 18-2 23 6 4 8 1 18-6 22l-57 32c-2 2-5 2-8 3 0 0-1 0-1 0z"/>
<glyph glyph-name="clock" unicode="&#111;" d="M305 206c-2 0-5 0-7 1l-67 34c-6 3-10 9-10 15l0 117c0 10 8 17 17 17 9 0 17-7 17-17l0-107 58-29c8-4 11-14 7-22-3-6-9-9-15-9m117 33c-4 0-8 2-12 5-3 3-4 8-4 12 0 4 1 9 4 12 7 6 18 6 24 0 3-3 5-8 5-12 0-4-2-9-5-12-3-3-7-5-12-5m-120 172c-8 3-12 13-9 22 4 8 13 12 22 9 9-4 13-14 9-22-3-6-9-10-15-10-3 0-5 0-7 1m54-36c-6 6-6 17 0 23 7 7 18 7 24 0 7-6 7-17 0-23-3-4-7-5-12-5-4 0-8 1-12 5m37-55c-4 9 0 19 9 22 8 4 18 0 22-9 3-8-1-18-9-22-2-1-5-1-7-1-6 0-12 4-15 10m-155 104c-4 0-9 1-12 4-3 4-5 8-5 12 0 5 2 9 5 12 6 6 18 6 24 0 3-3 5-7 5-12 0-4-2-8-5-12-3-3-8-4-12-4m0-369c-111 0-201 90-201 201 0 111 90 201 201 201 9 0 17-7 17-17 0-9-8-16-17-16-92 0-168-76-168-168 0-92 76-168 168-168 92 0 168 76 168 168 0 9 7 17 16 17 10 0 17-8 17-17 0-111-90-201-201-201"/>
<glyph glyph-name="pulzo-font-last" unicode="&#112;" d="M251 10c-139 0-251 112-251 251 0 139 112 251 251 251 139 0 251-112 251-251 0-139-112-251-251-251z m24 365c0 27-41 27-41 0l0-100-100 0c-27 0-27-40 0-40l121 0c6 0 11 2 14 5 4 4 6 9 6 15z m-24-314c111 0 200 89 200 200 0 110-89 200-200 200-110 0-200-90-200-200 0-111 90-200 200-200z"/>
<glyph glyph-name="close" unicode="&#113;" d="M447 459c7-6 8-17 2-24l-343-381c-6-7-17-7-24-1-7 6-8 17-1 24l342 381c6 7 17 7 24 1z m-376-10c7 7 18 7 25 0l362-362c6-7 6-17 0-24-7-7-18-7-25 0l-362 362c-6 7-6 17 0 24z"/>
<glyph glyph-name="copiarlink" unicode="&#114;" d="M303 288c-28 65-105 71-154 26-30-28-59-57-87-87-34-35-34-91 1-126 5-4 10-8 15-12 26-17 62-25 92-12 30 13 53 46 75 67 20 20-10 50-30 30-32-32-66-84-116-48-21 15-27 44-13 65 1 1 1 1 1 1 6 7 12 13 18 18 22 22 44 45 66 66 32 31 75 37 96-9 11-25 47-4 36 21m-86-55c28-64 105-70 154-26 30 27 58 57 86 85 35 35 34 91-1 124-4 5-9 9-15 12-26 17-62 25-91 12-30-13-53-45-75-66-19-19 11-49 30-30 32 32 66 83 115 48 22-15 27-43 13-64 0-1-1-1-1-1-6-7-11-12-18-18-22-22-43-43-66-65-31-30-74-36-94 10-12 24-48 3-37-21"/>
<glyph glyph-name="pulzo-font-dollar" unicode="&#115;" d="M276 274l-1 0 0 72 1 0c14 0 28-9 33-23 4-9 15-13 24-9 9 3 14 14 10 23-11 28-38 45-68 45l0 0 0 34c0 11-8 19-19 19-10 0-18-8-18-19l0-34-1 0c-19 0-38-8-51-21-14-13-22-32-22-51 0-40 33-72 73-72l0 0 0-72 0 0c-15 0-28 9-34 23-4 9-14 13-24 9-9-3-13-14-9-23 11-28 38-45 67-45l1 0 0-34c0-11 8-19 18-19 11 0 19 8 19 19l0 34 0 0c40 0 73 32 73 72 0 20-8 38-21 51-14 14-32 21-51 21z m-38 0c-20 0-36 16-36 36 0 10 3 19 10 25 7 7 16 10 26 10l0 0 0-71 0 0z m38-108l-1 0 0 72 1 0c10 0 18-4 25-11 7-7 10-16 10-25 1-20-15-36-35-36z m-20 346c-141 0-256-115-256-256 0-141 115-256 256-256 141 0 256 115 256 256 0 141-115 256-256 256z m0-476c-121 0-220 99-220 220 0 121 99 220 220 220 121 0 220-99 220-220 0-121-99-220-220-220z"/>
<glyph glyph-name="drop-down" unicode="&#116;" d="M254 337c-3 0-5 1-7 2l-240 134c-7 4-9 12-5 18 3 6 11 9 17 5l235-131 234 131c6 4 14 1 17-5 4-6 2-14-5-18l-240-134c-2-1-4-2-6-2"/>
<glyph glyph-name="flecha" unicode="&#117;" d="M289 256l-189-332 0 664z m76 0l-190-332 0 664z"/>
<glyph glyph-name="futbol" unicode="&#118;" d="M272 310l38-54-38-54-62 20 0 68z m-131-86l42-21 7-46c18-13 39-20 61-20l33 33 46-8c17 14 30 32 38 52l-22 42 22 42c-8 20-21 38-38 52l-46-8-33 33c-22 0-43-7-61-20l-7-46-42-21c-6-21-6-43 0-64m253 32c0-76-62-138-138-138-76 0-138 62-138 138 0 76 62 138 138 138 76 0 138-62 138-138"/>
<glyph glyph-name="gallery-small" unicode="&#119;" d="M256 70c99 0 178 80 178 178 0 99-79 179-178 179-99 0-178-80-178-179 0-98 79-178 178-178z m0-31c-116 0-209 94-209 209 0 116 93 210 209 210 116 0 209-94 209-210 0-115-93-209-209-209z m-62 255l164 0 0-163-164 0z m-54 55l163 0 1-34c-90 0-135 0-135 0 0 0 0-43 0-130l-29 0z"/>
<glyph glyph-name="home" unicode="&#120;" d="M265 392c5-5 31-28 55-49l58-52c6-5 9-12 9-19l0-130c0-10 0-17-1-22 0-2 0-3 0-4-1 0-2 0-4 0-5-1-12-1-22-1l-14 0c-10 0-17 0-22 1-2 0-3 0-4 0 0 1 0 2 0 4-1 5-1 12-1 22l0 27c0 10 0 17-1 24 0 7-2 15-8 20-6 6-13 8-20 9-7 0-15 0-25 0-10 0-18 0-25 0-7-1-15-3-20-9-6-5-8-13-9-20-1-7 0-14 0-24l0-27c0-10-1-17-1-22 0-2-1-3-1-4 0 0-1 0-4 0-4-1-11-1-22-1l-13 0c-10 0-18 0-22 1-2 0-4 0-4 0 0 1-1 2-1 4 0 5 0 12 0 22l0 130c0 7 3 14 9 19 16 15 32 30 58 52z m0 32c0 0-1 0-1 0l0 0c-4-1-7-2-10-5-2-2-87-77-121-108l-40-36c-6-5-6-13-1-19 5-5 13-6 19-1l4 4 0-117c0-10 0-18 1-25 1-7 3-14 9-20 5-5 13-7 20-8 7-1 15-1 25-1l13 0c11 0 18 0 25 1 7 1 15 3 21 8 5 6 7 13 8 20 1 7 1 15 1 25l0 27c0 10 0 17 0 21 0 3 1 4 1 4 0 0 2 1 4 1 4 1 12 1 22 1 10 0 17 0 22-1 2 0 3-1 4-1 0 0 0-1 0-4 1-4 1-11 1-21l0-27c0-10 0-18 1-25 1-7 2-14 8-20 6-5 13-7 20-8 7-1 15-1 25-1l14 0c10 0 18 0 25 1 7 1 14 3 20 8 6 6 8 13 8 20 1 7 1 15 1 25l0 117 5-4c5-5 14-4 19 1 5 6 4 14-1 19l-41 36c-34 30-118 106-120 108 0 0 0 0 0 0-3 3-7 5-11 5z"/>
<glyph glyph-name="ico-fuente" unicode="&#121;" d="M402 381c-8 12-19 27-31 40-13 14-25 27-36 36-19 15-28 17-33 17l-178 0c-16 0-29-15-29-33l0-352c0-17 13-32 29-32l264 0c16 0 29 15 29 32l0 255c0 6-1 16-15 37z m-48 22c11-13 20-24 26-33l-55 0 0 62c8-7 18-17 29-29z m40-314c0-3-2-6-6-6l-264 0c-4 0-6 3-6 6l0 352c0 4 2 7 6 7 0 0 178 0 178 0l0-91c0-7 5-13 12-13l80 0z m-53 46l-170 0c-6 0-12 9-12 20 0 10 6 19 12 19l170 0c6 0 12-9 12-19 0-11-6-20-12-20z m0 130l-170 0c-6 0-12 9-12 20 0 11 6 20 12 20l170 0c6 0 12-9 12-20 0-11-6-20-12-20z m0-65l-170 0c-6 0-12 9-12 20 0 11 6 19 12 19l170 0c6 0 12-8 12-19 0-11-6-20-12-20z"/>
<glyph glyph-name="icon-1" unicode="&#122;" d="M256 413c-87 0-157-70-157-157 0-87 70-157 157-157 87 0 157 70 157 157 0 87-70 157-157 157z m112-138l-51-42 15-64c3-13-11-23-21-16l-55 35-56-35c-10-7-24 3-21 16l15 64-50 42c-9 8-4 23 8 24l67 5 25 62c4 11 21 11 25 0l25-62 67-5c11-1 16-16 7-24z m78-44c-10-86-79-155-165-165-125-17-232 90-215 215 10 86 79 155 165 165 125 17 232-90 215-215z"/>
<glyph glyph-name="info" unicode="&#65;" d="M252 280l0-79c0-7 3-12 8-12 4 0 8 5 8 11 0 0 0 0 0 1l0 79c0 6-4 11-8 11 0 0 0 0 0 0-5 0-8-5-8-11z m8 35c4 0 8-3 8-8 0-4-4-8-8-8-4 0-8 4-8 8 0 5 4 8 8 8m0 35c54 0 98-44 98-98 0-54-44-98-98-98-54 0-98 44-98 98 0 54 44 98 98 98m-118-98c0-65 53-118 118-118 65 0 118 53 118 118 0 65-53 118-118 118-65 0-118-53-118-118z"/>
<glyph glyph-name="live" unicode="&#66;" d="M435 410c-7 6-19 6-26 0-7-7-7-17 0-23 41-35 63-81 63-131 0-49-22-96-63-131-8-6-8-16 0-22 3-3 8-5 13-5 5 0 9 2 13 5 48 41 74 95 74 153 0 58-26 113-74 154z m-395-154c0 50 22 96 63 131 8 6 8 16 0 22-7 7-19 7-26 0-48-40-74-95-74-153 0-58 26-112 74-154 4-3 8-4 13-4 5 0 10 1 13 4 8 7 8 17 0 23-41 35-63 82-63 131z m332 100c-7 6-19 6-26 0-7-7-7-17 0-23 24-20 37-48 37-77 0-28-13-56-37-76-7-7-7-17 0-23 4-3 9-4 13-4 5 0 10 1 14 4 31 27 48 62 48 99-1 37-18 73-49 100z m-243-100c0 29 13 56 37 77 8 6 8 16 0 22-7 7-19 7-26 0-31-26-48-62-48-99 0-38 18-74 49-100 4-3 8-5 13-5 5 0 10 2 13 5 8 6 7 16 0 22-25 21-38 49-38 78z m106 60c-12 6-26-1-26-12l0-96c0-11 14-18 26-11l83 48c11 6 11 18 0 24z"/>
<glyph glyph-name="phone" unicode="&#67;" d="M193 137c11 0 20-9 20-20 0-10-9-19-20-19-11 0-20 9-20 19 0 11 9 20 20 20z m-75 11l150 0 0 239-150 0z m8 277c-13 0-24-10-24-23l0-292c0-13 11-23 24-23l134 0c13 0 24 10 24 23l0 292c0 13-11 23-24 23z"/>
<glyph glyph-name="pin-sinsombra" unicode="&#68;" d="M150 307c7 6 15 11 23 15l0 124c48 17 100 17 148 0l0-124c8-4 16-9 23-15 13-10 24-22 32-37 8-14 12-31 12-47l0-18c0-14-11-26-24-26l-92 0 0-102c-1-14-12-25-26-24-13 1-23 11-23 24l0 102-92 0c-14 0-25 12-25 26l0 18c0 16 4 33 12 47 8 15 19 27 32 37z"/>
<glyph glyph-name="popup" unicode="&#69;" d="M256 171l228 199-456 0z"/>
<glyph glyph-name="pulzo-font-1last" unicode="&#70;" d="M279 64l-29-29-221 221 221 221 29-29-192-192z m-221 220l413 0 0-42-413 0z"/>
<glyph glyph-name="pulzo-font-2next" unicode="&#71;" d="M233 64l29-29 221 221-221 221-29-29 192-192z m221 220l-413 0 0-42 413 0z"/>
<glyph glyph-name="pulzo-font-buscar" unicode="&#72;" d="M463 78l-123 123c22 29 34 66 34 103-1 96-79 174-175 175-47 0-91-18-124-51-32-33-50-77-50-123 0-97 78-175 175-176 37 0 73 12 103 34l0 0 122-122c7-7 17-10 26-7 9 2 16 10 19 19 2 9-1 19-7 25z m-263 100c-70 1-126 57-127 127 0 33 13 65 37 89 24 23 56 36 89 36 70 0 126-57 126-126 0-34-13-66-36-89-24-24-56-37-89-37z"/>
<glyph glyph-name="pulzo-font-cerrar" unicode="&#73;" d="M70 96l354 354 33-34-73-73-281-281z m33 354l354-354-33-34-354 354z"/>
<glyph glyph-name="pulzo-font-dropdownselector" unicode="&#74;" d="M89 382l-70-70 227-227 227 227-70 70-157-157z"/>
<glyph glyph-name="pulzo-font-facebook" unicode="&#75;" d="M282 34l0 203 68 0 10 79-78 0 0 51c0 22 6 38 39 38l42 0 0 71c-7 1-32 3-61 3-60 0-101-37-101-105l0-58-69 0 0-79 69 0 0-203z"/>
<glyph glyph-name="pulzo-font-instagram" unicode="&#76;" d="M248 446c-54 0-61 0-82-1-21-1-35-5-48-10-13-5-24-11-35-22-11-11-18-23-23-36-5-12-8-27-9-48-1-21-1-28-1-81 0-54 0-61 1-82 1-21 4-36 9-48 5-13 12-24 23-35 11-11 22-18 35-23 13-5 27-8 48-9 21-1 28-1 82-1 54 0 60 0 82 1 21 1 35 4 48 9 13 5 24 12 35 23 11 11 18 22 23 35 5 12 8 27 9 48 1 21 1 28 1 82 0 53 0 60-1 81-1 21-4 36-9 48-5 13-12 25-23 36-11 11-22 17-35 22-13 5-27 9-48 10-22 1-28 1-82 1z m0-36c53 0 59 0 80-1 19-1 30-4 37-7 9-3 16-8 23-15 7-7 11-13 14-22 3-7 6-18 7-37 1-21 1-27 1-80 0-53 0-59-1-80-1-20-4-30-7-37-3-9-7-16-14-23-7-7-14-11-23-15-7-2-18-6-37-7-21-1-27-1-80-1-53 0-59 0-80 1-19 1-30 5-37 7-9 4-16 8-23 15-7 7-11 14-15 23-2 7-5 17-6 37-1 21-1 27-1 80 0 53 0 59 1 80 1 19 4 30 6 37 4 9 8 15 15 22 7 7 14 12 23 15 7 3 18 6 37 7 21 1 27 1 80 1z m8-228c-36 0-66 29-66 66 0 36 30 66 66 66 36 0 66-30 66-66 0-37-30-66-66-66z m-101 66c0-56 45-102 101-102 56 0 101 46 101 102 0 56-45 101-101 101-56 0-101-45-101-101z m207 82c-13 0-24 11-24 24 0 13 11 24 24 24 13 0 24-11 24-24 0-13-11-24-24-24z"/>
<glyph glyph-name="pulzo-font-popular" unicode="&#77;" d="M362 302l-6 6-84-96-89 96-156-169 36-33 120 129 89-96 119 134 34-34 36 139-139-36z"/>
<glyph glyph-name="pulzo-font-mas" unicode="&#78;" d="M194 97l55-55 225 224-225 225-55-56 168-169z m224 209l-393 0 0-79 393 0z"/>
<glyph glyph-name="pulzo-font-menuhamburguesa" unicode="&#79;" d="M17 375l478 0 0 52-478 0z m0-153l478 0 0 51-478 0z m0-154l478 0 0 51-478 0z"/>
<glyph glyph-name="pulzo-font-newsletter" unicode="&#80;" d="M458 250l-301-163c-3-1-6 0-8 3l-5 10 66 94c4 6 3 14-3 18-6 5-14 3-19-3l-59-83-49 90 179 41 131 127 50-90-103-4c-7-1-13-7-13-14 0-7 7-13 14-13l116 5 6-10c1-3 0-6-2-8z m-406 15c-1 3 0 6 2 8l301 162c3 2 6 1 8-2l14-25-132-127-179-41z m431 5l-97 176c-9 15-28 21-44 13l-300-163c-16-9-22-28-13-44l97-175c9-16 28-21 44-13l300 163c16 8 22 28 13 43z"/>
<glyph glyph-name="pulzo-font-play" unicode="&#81;" d="M74 429l0-346 380 173z"/>
<glyph glyph-name="pulzo-font-twiter" unicode="&#82;" d="M440 344c0 4 0 8 0 12 18 13 34 29 47 47-17-7-35-12-54-14 20 11 34 29 41 50-18-10-39-18-60-22-29 30-76 38-114 18-38-19-57-61-47-101-77 4-148 38-196 95-25-41-12-95 29-122-15 1-30 5-43 12 0-1 0-1 0-1 0-44 32-81 76-90-14-3-28-4-42-1 12-38 48-63 88-64-33-25-75-39-118-39-7 0-15 1-22 1 43-26 94-41 145-41 175 0 270 140 270 260z"/>
<glyph glyph-name="pulzo-font-ultimahora" unicode="&#83;" d="M239 478c40 0 79-11 114-31l-19-31c-28 17-61 26-95 26-103 0-187-83-187-186 0-104 84-187 187-187 103 0 187 83 187 187l36 0c0-123-100-223-223-223-122 0-222 100-222 223 0 122 100 222 222 222z m67-80l99-18-35 99z m-33-167l-100 0 0 37 59 0 0 95 41 0z"/>
<glyph glyph-name="pulzo-font-ultimo" unicode="&#84;" d="M279 225l-92 0 0 41 53 0 0 120 39 0z m-23-162c102 0 185 83 185 185 0 102-83 185-185 185-102 0-185-83-185-185 0-102 83-185 185-185z m0-46c-128 0-231 103-231 231 0 127 103 231 231 231 128 0 231-104 231-231 0-128-103-231-231-231z"/>
<glyph glyph-name="pulzo-font-upselector" unicode="&#85;" d="M406 114l70 70-226 227-227-227 70-70 157 156z"/>
<glyph glyph-name="pulzo-font-whatsapp-1" unicode="&#86;" d="M208 373c4 0 7-1 8-5 3-6 6-12 9-18 4-9 7-18 11-27 3-6 2-11-2-16-3-5-8-10-12-15-3-4-4-7-1-11 15-24 34-44 59-57 6-4 13-7 20-10 5-2 8-1 11 4 6 6 11 13 17 20 4 5 7 6 12 3 16-7 31-14 46-21 4-2 6-5 5-9-1-7-2-14-4-21-2-7-8-12-14-16-15-10-32-15-51-10-12 3-24 7-36 12-28 9-51 26-71 47-17 17-31 36-43 57-10 17-14 35-10 55 3 14 11 25 22 34 5 5 11 5 18 4 2 0 4 0 6 0z m39 116l28 0c1 0 2-1 3-1 24-2 47-7 69-16 38-15 70-40 95-73 24-31 39-66 44-105 0-6 1-11 2-16l0-28c0-1-1-2-1-3-2-22-6-43-14-64-12-30-29-56-52-78-14-15-30-27-48-37-32-18-67-28-104-29-41-1-79 7-115 26-2 1-4 1-6 1-13-4-26-9-40-13-19-6-39-12-59-19-7-2-15-5-22-7 0 0-1 1-1 1 0 2 1 4 2 6 5 14 10 29 15 44 7 22 15 44 22 67 1 1 1 4 0 6-3 5-6 11-9 16-13 26-19 53-21 82-2 23 0 46 6 69 7 30 20 57 38 81 19 24 41 44 67 59 27 15 54 25 84 29 6 1 12 1 17 2m-164-406c3 1 6 1 8 2 20 7 41 13 61 20 3 1 5 0 7-1 9-5 18-10 27-14 25-11 50-16 77-15 27 0 53 5 77 17 15 7 29 15 42 26 21 17 38 38 50 62 16 33 23 68 19 105-4 34-16 64-37 91-12 17-28 32-45 44-24 16-49 27-78 31-42 6-83 0-121-21-28-15-51-36-69-63-12-19-21-39-26-61-4-18-5-36-4-54 0-16 4-32 9-48 6-17 14-34 25-49 1-2 1-3 0-5-6-18-12-36-18-54-1-4-3-9-4-13"/>
<glyph glyph-name="pulzo-font-youtube" unicode="&#87;" d="M308 252l-103 72 117-64-14-8m-104-54l0 125 116-62z m237 191c-16 18-34 18-43 19-60 5-150 5-150 5 0 0-90 0-150-5-9-1-27-1-43-19-13-13-17-44-17-44 0 0-5-36-5-72l0-34c0-36 5-72 5-72 0 0 4-31 17-44 16-18 37-18 47-19 34-4 146-5 146-5 0 0 90 0 150 5 9 1 27 1 43 19 13 13 17 44 17 44 0 0 5 36 5 72l0 34c0 36-5 72-5 72 0 0-4 31-17 44z"/>
<glyph glyph-name="refresh" unicode="&#88;" d="M44 490c0-12-10-22-22-22-12 0-22 10-22 22 0 12 10 22 22 22 12 0 22-10 22-22z m317-239c0 27-11 52-29 71-6 5-14 5-20 0-5-5-5-14 0-19 14-14 21-32 21-52 0-35-25-64-58-71l0 17c0 5-7 8-11 5l-40-31c-4-3-4-8 0-11l40-31c4-3 11 0 11 5l0 19c48 6 86 48 86 98z m-182 10c0 35 25 64 58 70l0-16c0-5 7-8 11-5l40 31c4 3 4 8 0 10l-40 32c-4 3-11 0-11-5l0-19c-48-6-86-48-86-98 0-27 11-52 29-71 3-3 7-4 10-4 3 0 7 1 10 4 5 5 5 14 0 19-14 14-21 32-21 52z"/>
<glyph glyph-name="relacionados" unicode="&#89;" d="M172 428c-16 0-29-13-29-29l0-278c0-16 13-30 29-30l183 0c16 0 28 14 28 30l0 204c0 8-3 16-9 21l-82 82z m0 29l131 0 91-90c11-11 17-26 17-42l0-204c0-33-25-59-56-59l-183 0c-32 0-57 26-57 59l0 278c0 32 25 58 57 58z m25-247l132 0 0 33-132 0z m0-66l132 0 0 33-132 0z m0 132l132 0 0 33-132 0z m111 165l-28 0 0-99 99 0 0 27-71 0z"/>
<glyph glyph-name="share" unicode="&#90;" d="M356 131c25 0 45-20 45-46 0-25-20-46-45-46-26 0-46 21-46 46 0 26 20 46 46 46m-272 171c26 0 46-20 46-46 0-26-20-46-46-46-25 0-45 20-45 46 0 26 20 46 45 46m272 171c25 0 45-21 45-46 0-26-20-46-45-46-26 0-46 20-46 46 0 25 20 46 46 46m0 39c-47 0-84-38-84-85 0-9 1-18 4-27l-139-78c-14 12-33 19-53 19-46 0-83-38-83-85 0-47 37-85 83-85 20 0 39 7 53 19l139-79c-3-8-4-17-4-26 0-47 37-85 84-85 46 0 83 38 83 85 0 47-37 86-83 86-24 0-45-10-60-26l-135 77c5 10 7 22 7 34 0 12-2 24-7 34l135 77c15-16 36-26 60-26 46 0 83 39 83 86 0 47-37 85-83 85"/>
<glyph glyph-name="pulzo-font-alert" unicode="&#48;" d="M256 86c-92 0-166 75-166 168 0 92 74 167 166 167 91 0 165-75 165-167 0-93-74-168-165-168m0 383c-118 0-213-97-213-215 0-119 95-216 213-216 117 0 213 97 213 216 0 118-96 215-213 215m-18-249l-7 134 53 0-7-134z m33-20c4-2 7-5 10-9 2-4 3-8 3-13 0-5-1-9-3-13-3-4-6-7-10-9-4-2-9-3-14-3-5 0-10 1-14 3-4 2-7 5-10 9-2 4-3 8-3 13 0 5 1 9 3 13 3 4 6 7 10 9 4 3 9 4 14 4 5 0 10-1 14-4z"/>
<glyph glyph-name="sign-2" unicode="&#49;" d="M256 86c-92 0-166 75-166 168 0 92 74 167 166 167 91 0 165-75 165-167 0-93-74-168-165-168m0 383c-118 0-213-97-213-215 0-119 95-216 213-216 117 0 213 97 213 216 0 118-96 215-213 215m-15-237l-46 54-33-39 79-93 126 148-33 39z"/>
<glyph glyph-name="ticket" unicode="&#50;" d="M235 269l13-23 12 7-13 23z m-19 35l13-23 12 6-13 23z m-163-53l147 82 10-18 11 7-9 17 60 34 12-21c-17-13-22-36-11-55 10-18 32-26 52-19l11-21-60-33-10 17-11-6 9-18-147-81-11 21c16 13 21 36 11 54-10 19-33 27-52 20z m-21 5l3-5 18-33 3-6 6 3c15 9 33 3 41-11 8-15 3-33-11-42l-6-3 3-6 18-32 3-6 6 3 236 131 6 3-3 6-18 33-4 5-6-3c-14-8-33-3-41 12-8 15-3 33 12 41l6 4-3 5-18 33-4 6-6-3-235-131z"/>
<glyph glyph-name="pulzo-font-tiempolectura" unicode="&#51;" d="M446 276c-9 41-45 71-87 71-22 0-43-8-59-24-14 4-29 7-44 7-16 0-31-3-44-7-17 16-38 24-60 24-42 0-78-29-87-71-11 0-19-9-19-20 0-11 8-20 19-20 9-41 45-71 87-71 49 0 89 41 89 91 0 11-2 21-5 31 14 3 29 2 40 0-3-10-5-20-5-31 0-50 40-91 89-91 42 0 78 29 87 71 11 0 19 9 19 20-1 11-10 20-20 20z m-88-77c-28 0-51 23-51 51 0 29 23 52 51 52 29 0 52-23 52-52 0-28-23-51-52-51z m-204 103c28 0 51-23 51-52 0-28-23-51-51-51-29 0-52 23-52 51 0 29 23 52 52 52z"/>
<glyph glyph-name="triangle" unicode="&#52;" d="M256 93l-256 326 512 0z"/>
<glyph glyph-name="video-small" unicode="&#53;" d="M256 70c99 0 178 80 178 178 0 99-79 179-178 179-99 0-178-80-178-179 0-98 79-178 178-178z m0-31c-116 0-209 94-209 209 0 116 93 210 209 210 116 0 209-94 209-210 0-115-93-209-209-209z m-70 295l0-176 186 88z"/>
<glyph glyph-name="pulzo-font-home" unicode="&#54;" d="M259 417c6-5 35-32 63-58l66-61c7-6 11-15 11-24l0-154c0-12 0-21-1-26 0-3-1-4-1-5 0 0-2 0-4 0-5-1-14-1-25-1l-16 0c-12 0-20 0-25 1-3 0-4 0-5 0 0 1 0 2 0 5-1 5-1 14-1 26l0 32c0 12 0 21-1 29-1 8-3 17-9 24-7 7-15 9-23 10-9 1-18 1-29 1-12 0-21 0-29-1-8-1-16-3-23-10-6-7-9-16-9-24-1-8-1-17-1-29l0-32c0-12 0-21-1-26 0-3-1-4-1-5 0 0-2 0-4 0-5-1-14-1-25-1l-16 0c-12 0-20 0-25 1-3 0-4 0-5 0 0 1 0 2 0 5-1 5-1 14-1 26l0 154c0 9 4 18 10 24 19 17 38 34 67 61z m0 38c0 0-1 0-1 0l0 0c-5 0-9-2-11-6-3-2-100-92-138-127l-47-43c-6-6-7-16-1-23 6-7 15-7 22-1l5 5 0-140c0-12 0-21 1-29 1-9 3-17 9-24 7-7 15-9 23-10 9-1 17-1 29-1l16 0c11 0 20 0 28 1 8 1 17 3 23 10 7 7 9 15 10 24 1 8 1 17 1 29l0 32c0 12 0 20 0 26 1 2 1 4 1 4 1 0 2 1 5 1 5 1 13 1 25 1 11 0 20 0 25-1 3 0 4-1 4-1 1 0 1-2 1-4 1-6 1-14 1-26l0-32c0-12 0-21 1-30 1-8 3-17 9-23 7-7 15-9 23-10 8-1 17-1 29-1l16 0c11 0 20 0 28 1 8 1 17 3 23 10 7 7 9 15 10 24 1 8 1 17 1 29l0 140 5-5c6-6 16-6 22 1 6 7 5 17-1 23l-47 43c-39 35-135 125-138 127 0 0 0 0 0 0-3 4-7 6-12 6z"/>
<glyph glyph-name="1-2" unicode="&#55;" d="M454 284l0 0 0 0c-3 8-8 16-14 21l-13 11c0 1-1 2-2 2l-29 23 0-8c0-10-2-19-6-27l17-13 0 0c1-1 3-2 5-4l-5-4-148-119-149 119-5 4c1 2 3 3 5 4l17 14c-4 8-5 17-5 26l0 10-32-25-13-13c-7-5-12-13-15-21l0 0 0 0c-2-6-3-11-3-17l0-177c0-24 20-44 45-44l309 0c24 0 44 20 44 44l0 177c0 5-1 11-3 17z m-364-189l0 158c0 3 1 5 1 8l92-73z m25-18l92 92 43-35c3-2 6-3 10-3 3 0 6 1 9 3l42 34 91-91-287 0z m311 19l-91 91 91 74c0-3 0-6 0-8z m-85 364l-164 0c-19 0-34-17-34-38l0-91c0-20 15-37 34-37l12 0 0-37c0-6 3-11 8-13 2-1 4-1 6-1 4 0 7 1 9 3l58 47 1 1 70 0c19 0 34 17 34 37l0 91c0 21-15 38-34 38z m-123-173l0 35-41 0c-2 0-6 4-6 9l0 91c0 6 4 10 6 10l164 0c2 0 5-4 5-10l0-91c0-5-3-9-5-9l-81 0z m9 89c0 11-9 20-20 20-11 0-20-9-20-20 0-11 9-20 20-20 11 0 20 9 20 20z m51 0c0 11-9 20-20 20-11 0-20-9-20-20 0-11 9-20 20-20 11 0 20 9 20 20z m52 0c0 11-9 20-20 20-11 0-20-9-20-20 0-11 9-20 20-20 11 0 20 9 20 20z"/>
<glyph glyph-name="pulzo-font-categories" unicode="&#56;" d="M105 421c-7 0-14-7-14-14l0-101c0-7 7-14 14-14l101 0c7 0 14 7 14 14l0 101c0 7-7 14-14 14z m0 28l101 0c23 0 42-19 42-42l0-101c0-23-19-42-42-42l-101 0c-23 0-42 19-42 42l0 101c0 23 19 42 42 42z m0-229c-7 0-14-7-14-14l0-101c0-7 7-14 14-14l101 0c7 0 14 7 14 14l0 101c0 7-7 14-14 14z m0 28l101 0c23 0 42-19 42-42l0-101c0-23-19-42-42-42l-101 0c-23 0-42 19-42 42l0 101c0 23 19 42 42 42z m201 173c-7 0-14-7-14-14l0-101c0-7 7-14 14-14l101 0c7 0 14 7 14 14l0 101c0 7-7 14-14 14z m0 28l101 0c23 0 42-19 42-42l0-101c0-23-19-42-42-42l-101 0c-23 0-42 19-42 42l0 101c0 23 19 42 42 42z m-1-228c-8 0-14-6-14-14l0-99c0-7 6-14 14-14l99 0c7 0 14 7 14 14l0 99c0 8-7 14-14 14z m1 27l101 0c23 0 42-19 42-42l0-101c0-23-19-42-42-42l-101 0c-23 0-42 19-42 42l0 101c0 23 19 42 42 42z"/>
<glyph glyph-name="pulzo-font-message" unicode="&#57;" d="M97 371c91-1 181-1 272-1 8 0 31 4 39 0 12-8 16-27 18-41 3-21 1-44 2-65 0-22 0-45 1-67 0-32 5-55-35-61-42-6-88-1-131-1-46 0-92 0-137 1-30 0-41-1-41 32 0 20 0 41 0 61 0 16-8 142 11 142 13-1 13 19 0 19-46 2-31-64-31-93 0-35 0-71 0-106 0-18-7-50 5-65 8-10 21-9 33-10 33-1 66-1 99-1 36 0 72 0 107 0 34 1 75-4 108 2 39 7 32 57 32 87-1 33-2 65-2 97-1 21 3 48-6 68-6 13-12 17-25 20-29 7-72 1-102 1-72 0-145 0-217 0-13 1-13-19 0-19z m-20-7c54-59 114-113 173-168 4-3 10-4 14 0 52 56 108 107 165 158 10 8-4 22-14 14-57-51-113-102-165-158 4 0 9 0 14 0-58 56-118 109-173 168-9 9-23-5-14-14z m222-119c38-33 73-67 110-100 10-9 24 5 14 14-37 33-72 67-110 100-9 8-24-5-14-14z m-111 20c-37-36-74-71-111-106-9-9 5-23 14-14 37 35 74 70 111 106 9 9-5 22-14 14z"/>
<glyph glyph-name="pulzo-font-whatsapp" unicode="&#33;" d="M71 102c-2-9 0-20 7-27 7-7 18-9 27-7l56 17c84-48 191-26 249 51 59 77 51 186-17 254-69 68-177 76-254 17-77-58-99-165-51-249z m63 273c63 64 165 68 234 10 68-58 81-159 29-232-53-73-152-94-229-48-3 1-6 2-9 1l-59-18c-3 0-5 0-7 2-2 2-3 4-2 7l18 60c0 3 0 6-1 8-41 68-30 155 26 210z m119-242c31-11 65-4 88 19l10 10c6 6 8 15 7 23-1 9-7 16-15 20l-52 25c-4 2-9 1-12-2l-17-17 0 0c-22 9-39 26-48 48l17 17c3 3 4 8 2 12l-26 53c-3 7-11 13-19 14-8 2-17-1-23-7l-10-10c-23-23-30-57-19-87 20-55 63-97 117-118z m-83 190l10 10c1 1 3 2 5 1 1 0 3-1 3-2l23-46-13-13c-5-5-7-13-4-21 11-27 32-49 60-61l1 0c8-3 16-1 22 5l12 12 45-22c2-1 3-2 3-4 0-2 0-3-1-5l-10-10c-17-17-43-22-65-14-49 18-87 56-105 105-9 22-3 48 14 65z m136-30c3 0 5 1 7 3l20 19c4 4 4 11 0 15-4 4-11 4-15 0l-19-20c-3-3-4-7-2-11 1-4 5-6 9-6z m7-33c0-6 4-11 10-11l24-2 1 0c6 0 10 5 10 11 1 6-4 11-9 11l-25 1c-3 0-6-1-8-3-2-1-3-4-3-7z m-51 50l1 0c6 0 10 5 10 11l-1 25c-1 4-3 7-6 8-4 2-8 2-11 0-3-2-5-6-5-9l2-25c0-6 5-10 10-10z"/>
<glyph glyph-name="luna" unicode="&#34;" d="M347 510c-8 4-18 2-24-4-6-6-8-16-4-24 12-27 18-57 18-86 0-122-99-221-221-221-29 0-59 6-86 18-8 4-18 2-24-4-6-6-8-16-4-24 41-96 136-159 240-159 146 0 262 118 262 262 2 106-61 201-157 242z m-103-461c-71 0-134 34-175 89 16-4 33-4 49-4 146 0 262 118 262 262 0 17-2 33-4 49 55-41 89-106 89-175-2-122-101-221-221-221z"/>
<glyph glyph-name="sol" unicode="&#35;" d="M256 404c-81 0-146-66-146-147 0-81 65-146 146-146 81 0 146 65 146 146 0 81-65 147-146 147z m0-262c-64 0-115 51-115 115 0 64 51 116 115 116 64 0 115-52 115-116 0-64-51-115-115-115z m0 275c9 0 16 7 16 15l0 64c0 9-7 16-16 16-9 0-16-7-16-16l0-64c0-8 7-15 16-15z m-135-47c3-3 7-4 11-4 5 0 9 1 12 4 5 5 5 15 0 21l-46 46c-6 5-16 5-21 0-6-6-6-16 0-22z m-24-113c0 9-7 16-16 16l-64 0c-8 0-16-7-16-16 0-8 8-15 16-15l64 0c9 0 16 7 16 15z m24-113l-46-46c-5-6-5-16 0-21 3-3 7-4 12-4 4 0 8 1 11 4l46 45c5 6 5 16 0 22-7 5-17 5-23 0z m135-47c-9 0-16-7-16-16l0-64c0-8 7-16 16-16 9 0 16 8 16 16l0 64c0 9-7 16-16 16z m169-24c5 0 9 1 12 4 5 5 5 15 0 21l-46 46c-6 5-16 5-21 0-6-6-6-16 0-22l45-45c3-3 6-4 10-4z m-8 184c0-8 7-15 15-15l64 0c9 0 16 7 16 15 0 9-7 16-16 16l-64 0c-8 0-15-7-15-16z m-36 109c4 0 9 1 12 4l45 45c6 6 6 16 0 22-6 5-16 5-21 0l-47-44c-6-6-6-16 0-22 3-4 7-5 11-5z"/>
<glyph glyph-name="close-message" unicode="&#36;" d="M234 250l-79 79c-5 5-5 12 0 17 4 4 12 4 16 0l79-79 79 79c5 4 12 4 17 0 4-5 4-12 0-17l-79-79 79-79c4-4 4-12 0-16-5-5-12-5-17 0l-79 79-79-79c-4-5-12-5-16 0-5 4-5 12 0 16z m-191 240c0-12-9-21-21-21-12 0-21 9-21 21 0 12 9 21 21 21 12 0 21-9 21-21z"/>
<glyph glyph-name="pulzo-font-audio" unicode="&#37;" d="M271 383c-3 2-8 1-11-1l-71-58-61 0c-6 0-12-5-12-11l0-106c0-6 6-11 12-11l61 0 71-57c2-2 4-3 7-3 2 0 3 1 5 1 4 2 7 6 7 10l0 226c-1 4-4 8-8 10m86-27c-5-5-5-11 0-16 20-20 32-47 32-76 0-28-12-54-32-75-5-5-5-12 0-16 2-3 5-4 8-4 3 0 6 1 9 4 25 24 39 57 39 91 0 35-14 67-39 92-5 4-12 5-17 0m-31-33c-5 4-13 4-18 0-5-5-5-12 0-16 14-13 22-29 22-47 0-17-8-34-22-47-5-4-5-11 0-16 3-2 6-3 9-3 3 0 6 1 9 3 19 17 29 40 29 63 0 24-10 46-29 63"/>
<glyph glyph-name="pulzo-font-mail" unicode="&#38;" d="M256 254l-224 215c9 6 20 9 30 9l388 0c10 0 21-3 30-9z m192-192c35 0 64 30 64 67l0 317-240-227c-9-9-23-9-32 0l-240 227 0-317c0-37 29-67 64-67z"/>
<glyph glyph-name="pulzo-font-abc" unicode="&#39;" d="M63 387l64 0 0-94 32 0 0 188c0 17-14 31-32 31l-64 0c-18 0-32-14-32-31l0-188 32 0z m0 94l64 0 0-63-64 0z m418 0l0 31-96 0c-18 0-32-14-32-31l0-157c0-17 14-31 32-31l96 0 0 31-96 0 0 157z m-161-47l0 47c0 17-14 31-32 31l-96 0 0-219 96 0c18 0 32 14 32 31l0 47c0 17-4 31-22 31 18 0 22 15 22 32z m-32-110l-64 0 0 63 64 0z m0 94l-64 0 0 63 64 0z m129-188l-209-219-113 141 41 34 72-72 177 148z"/>
<glyph glyph-name="pulzo-font-comment" unicode="&#40;" d="M0 320c0-58 33-109 85-144l0-176 131 131c13-2 26-3 40-3 141 0 256 83 256 192 0 109-115 192-256 192-141 0-256-83-256-192z"/>
<glyph glyph-name="pulzo-font-summary" unicode="&#41;" d="M158 315c0 11-8 20-17 20l-85 0c-9 0-17-9-17-20 0-11 8-20 17-20l85 0c9 0 17 9 17 20m26-92c0 11-8 20-17 20l-84 0c-10 0-17-9-17-20 0-11 7-20 17-20l84 0c9 0 17 9 17 20m-13 145c0 10-8 19-16 19l-113 0c-9 0-16-9-16-19 0-11 7-20 16-20l113 0c8 0 16 9 16 20m280 84l-270 0c0 0 0 0-1 0l0 0c-1 0-2 0-4 0l-158 0c-10 0-18-8-18-18 0-10 8-18 18-18l158 0c2 0 3 0 4 0l0 0 270 0c14 0 27-12 27-28l0-171c0-15-12-28-27-28l-153 0c-5 0-9-2-12-5l-53-53 0 40c0 10-9 18-18 18l-6 0c-1 0-1 0-1 0l-84 0c-10 0-17-8-17-18 0-9 7-17 17-17l76 0 0-65c0-6 4-13 10-16 2-1 4-1 6-1 5 0 8 1 12 4l77 77 146 0c34 0 62 29 62 64l0 171c0 35-28 63-61 64m-129-157c10 0 19 9 19 20 0 11-9 20-19 20-11 0-20-9-20-20 0-11 9-20 20-20m-92 0c10 0 19 9 19 20 0 11-9 20-19 20-11 0-20-9-20-20 0-11 9-20 20-20m184 40c-11 0-20-9-20-20 0-11 9-20 20-20 10 0 19 9 19 20 0 11-9 20-19 20z"/>
<glyph glyph-name="pulzo-font-summary-item" unicode="&#42;" d="M0 303l53 117 177-125-39 189 133 0-43-187 178 121 53-116-185-45 185-47-53-115-178 121 42-188-132 0 38 189-176-123-53 115 185 48z"/>
</font>
</defs>
</svg>
