<?xml version="1.0" standalone="no"?>
<!DOCTYPE svg PUBLIC "-//W3C//DTD SVG 1.1//EN" "http://www.w3.org/Graphics/SVG/1.1/DTD/svg11.dtd" >
<svg xmlns="http://www.w3.org/2000/svg">
<metadata></metadata>
<defs>
<font id="noto_serifitalic" horiz-adv-x="1145" >
<font-face units-per-em="2048" ascent="1638" descent="-410" />
<missing-glyph horiz-adv-x="532" />
<glyph horiz-adv-x="0" />
<glyph horiz-adv-x="0" />
<glyph unicode="&#xd;" horiz-adv-x="1044" />
<glyph unicode=" "  horiz-adv-x="532" />
<glyph unicode="&#x09;" horiz-adv-x="532" />
<glyph unicode="&#xa0;" horiz-adv-x="532" />
<glyph unicode="!" horiz-adv-x="682" d="M123 109q0 71 36.5 114t98.5 43q127 0 127 -125q0 -73 -36.5 -115t-98.5 -42q-127 0 -127 125zM258 412l152 1050h237l-295 -1050h-94z" />
<glyph unicode="&#x22;" horiz-adv-x="836" d="M268 981l41 481h217l-164 -481h-94zM653 981l41 481h217l-163 -481h-95z" />
<glyph unicode="#" d="M47 416l14 121h211l119 401h-223l12 121h246l117 403h125l-119 -403h285l118 403h123l-119 -403h189l-12 -121h-211l-117 -401h223l-14 -121h-248l-121 -416h-123l121 416h-285l-120 -416h-123l121 416h-189zM397 537h285l117 401h-285z" />
<glyph unicode="$" d="M49 352q0 77 50.5 122.5t107.5 45.5q0 -135 60.5 -227.5t164.5 -114.5l107 502q-271 135 -271 350q0 167 111.5 264t314.5 107l33 155h102l-32 -155q295 -26 295 -205q0 -141 -166 -141q0 220 -150 254l-104 -492l22 -12q185 -101 235 -174t50 -162q0 -168 -123.5 -275 t-343.5 -120l-49 -236h-103l52 238q-170 12 -266.5 88t-96.5 188zM459 1059q0 -119 121 -195l94 447q-215 -36 -215 -252zM535 174q116 10 182.5 79t66.5 171q0 132 -151 211z" />
<glyph unicode="%" horiz-adv-x="1835" d="M135 901q0 216 118 398t312 182q273 0 273 -326q0 -207 -120.5 -393.5t-318.5 -186.5q-125 0 -194.5 83.5t-69.5 242.5zM297 870q0 -211 111 -211t185.5 177.5t74.5 351.5q0 211 -111 211t-185.5 -177t-74.5 -352zM342 0l1028 1462h143l-1019 -1462h-152zM1040 309 q0 216 118 398t312 182q273 0 273 -326q0 -207 -120.5 -393t-317.5 -186q-265 0 -265 325zM1202 279q0 -211 111 -211t185.5 176.5t74.5 351.5q0 211 -111 211t-185.5 -176.5t-74.5 -351.5z" />
<glyph unicode="&#x26;" horiz-adv-x="1520" d="M72 362q0 159 96 269t334 198q-99 167 -99 301q0 170 111.5 261.5t325.5 91.5q166 0 256 -72t90 -194q0 -133 -75 -215t-372 -189l287 -393q87 164 129 362l16 80h369l-18 -86h-19q-102 0 -148 -30.5t-66.5 -59t-102.5 -199.5q-39 -81 -90 -161l112 -154q63 -86 201 -86 h18l-18 -86h-313l-123 170q-185 -190 -453 -190q-211 0 -329.5 104.5t-118.5 277.5zM274 367q0 -119 71.5 -196t195.5 -77q212 0 368 164l-348 483q-160 -73 -223.5 -155.5t-63.5 -218.5zM600 1145q0 -114 82 -250q173 65 245 130.5t72 176.5q0 81 -47.5 130.5t-126.5 49.5 q-225 0 -225 -237z" />
<glyph unicode="'" horiz-adv-x="451" d="M260 981l41 481h217l-164 -481h-94z" />
<glyph unicode="(" horiz-adv-x="709" d="M86 381q0 413 198.5 746t551.5 429l-21 -92q-283 -154 -409.5 -517.5t-126.5 -661.5q0 -321 190 -453l-20 -94q-363 159 -363 643z" />
<glyph unicode=")" horiz-adv-x="709" d="M-100 -279l20 93q284 153 410.5 519.5t126.5 659.5q0 320 -191 453l21 94q362 -158 362 -643q0 -415 -200 -748.5t-549 -427.5z" />
<glyph unicode="*" horiz-adv-x="1024" d="M238 1153l358 29l-315 172l104 143l266 -260l17 330l174 -37l-123 -305l350 123l37 -172l-361 -27l318 -170l-102 -139l-271 252l-12 -328l-174 37l119 305l-349 -125z" />
<glyph unicode="+" d="M150 672v121h376v378h123v-378h379v-121h-379v-379h-123v379h-376z" />
<glyph unicode="," horiz-adv-x="512" d="M-57 -299l8 86q209 47 209 172q0 36 -66 78q-67 42 -67 104q0 55 35 88t92 33q69 0 114 -45.5t45 -122.5q0 -150 -95 -253.5t-275 -139.5z" />
<glyph unicode="-" horiz-adv-x="635" d="M29 481l32 154h533l-33 -154h-532z" />
<glyph unicode="." horiz-adv-x="512" d="M53 109q0 71 36.5 114t98.5 43q127 0 127 -125q0 -72 -36.5 -114.5t-98.5 -42.5q-127 0 -127 125z" />
<glyph unicode="/" horiz-adv-x="590" d="M-190 -248l841 1804h129l-841 -1804h-129z" />
<glyph unicode="0" d="M82 473q0 394 170 703t444 309q180 0 284.5 -123t104.5 -346q0 -394 -167 -716.5t-441 -322.5q-183 0 -289 131t-106 365zM281 414q0 -324 213 -324q178 0 285.5 295.5t107.5 669.5q0 319 -211 319q-179 0 -287 -297t-108 -663z" />
<glyph unicode="1" d="M78 0l16 86h109q97 0 141 36.5t59 110.5l160 754q35 164 76 322h-8q-129 -127 -192 -170t-117 -43q-82 0 -82 110q140 34 335 158l166 106h131l-264 -1245q-8 -38 -8 -57q0 -82 148 -82h110l-18 -86h-762z" />
<glyph unicode="2" d="M-35 0l43 166l481 434q191 172 268 298t77 276q0 95 -51 150.5t-138 55.5q-236 0 -291 -309q-145 0 -145 131q0 114 123.5 197.5t322.5 83.5q185 0 286 -78t101 -221q0 -122 -87 -251.5t-339 -354.5l-460 -414h475q67 0 114.5 30.5t88.5 122.5l14 33h86l-82 -350h-887z " />
<glyph unicode="3" d="M-6 195q0 68 43 109.5t113 41.5q0 -112 67 -183t189 -71q146 0 239.5 93t93.5 253q0 127 -75.5 197t-212.5 70h-89l21 104h66q174 0 286.5 107t112.5 278q0 186 -174 186q-228 0 -291 -305q-152 0 -152 131q0 119 127.5 198t323.5 79q174 0 275.5 -79t101.5 -214 q0 -156 -110.5 -271t-301.5 -149q147 -15 227 -98.5t80 -210.5q0 -231 -159.5 -356t-403.5 -125q-197 0 -297 58.5t-100 156.5z" />
<glyph unicode="4" d="M-29 401l19 84l839 977h197l-203 -946h254l-24 -115h-254l-35 -176q-8 -40 -8 -57q0 -82 147 -82h47l-18 -86h-670l17 86h90q97 0 141 36.5t59 110.5l33 168h-631zM162 516h465l80 383q49 232 100 397q-85 -129 -180 -235z" />
<glyph unicode="5" d="M16 184q0 127 154 127q7 -219 223 -219q165 0 257.5 103t92.5 288q0 132 -71.5 205.5t-190.5 73.5q-110 0 -223 -45l-70 14l220 731h684l-56 -309h-86q6 78 6 96q0 49 -94 49h-397l-135 -456q99 32 196 32q202 0 316 -100t114 -276q0 -228 -159.5 -373t-421.5 -145 q-359 0 -359 204z" />
<glyph unicode="6" d="M123 475q0 413 198.5 710.5t501.5 297.5q146 0 230 -53t84 -132q0 -153 -179 -153q0 139 -35 189t-104 50q-308 0 -459 -602q152 107 302 107q162 0 254 -97.5t92 -261.5q0 -238 -134.5 -394t-365.5 -156q-173 0 -279 131.5t-106 363.5zM309 399q0 -307 211 -307 q124 0 204.5 120t80.5 306q0 266 -184 266q-137 0 -283 -118q-29 -164 -29 -267z" />
<glyph unicode="7" d="M184 1092l88 370h916l-12 -59l-801 -1403h-154l758 1298h-539q-112 0 -141 -104l-29 -102h-86z" />
<glyph unicode="8" d="M20 332q0 142 90 238t316 178q-201 144 -201 339q0 187 126.5 291.5t363.5 104.5q174 0 275.5 -82.5t101.5 -216.5q0 -132 -80.5 -227.5t-276.5 -176.5q260 -151 260 -366q0 -209 -145 -321.5t-395 -112.5q-198 0 -316.5 98t-118.5 254zM217 328q0 -115 71 -181.5 t193 -66.5q144 0 232 76t88 209q0 106 -68 181.5t-213 147.5q-303 -111 -303 -366zM422 1110q0 -165 215 -281q272 116 272 340q0 100 -56 155.5t-155 55.5q-125 0 -200.5 -74t-75.5 -196z" />
<glyph unicode="9" d="M72 164q0 51 32 85t89 34q4 -93 52.5 -148t129.5 -55q142 0 243.5 145.5t190.5 476.5q-134 -139 -313 -139q-159 0 -252.5 93t-93.5 247q0 250 157.5 415t382.5 165q173 0 274 -106t101 -298q0 -394 -188 -746.5t-519 -352.5q-286 0 -286 184zM354 897q0 -109 52.5 -165 t140.5 -56q164 0 295 174q32 133 32 242q0 278 -190 278q-135 0 -232.5 -144t-97.5 -329z" />
<glyph unicode=":" horiz-adv-x="586" d="M66 109q0 71 36.5 114t98.5 43q60 0 93.5 -34t33.5 -91q0 -73 -36.5 -115t-98.5 -42q-127 0 -127 125zM250 950q0 71 36.5 114.5t98.5 43.5q127 0 127 -125q0 -74 -36.5 -116t-98.5 -42q-127 0 -127 125z" />
<glyph unicode=";" horiz-adv-x="586" d="M-16 -299l8 86q209 47 209 172q0 36 -66 78q-67 42 -67 104q0 55 35 88t92 33q69 0 114.5 -46.5t45.5 -121.5q0 -151 -96.5 -254t-274.5 -139zM254 950q0 71 36.5 114.5t98.5 43.5q127 0 127 -125q0 -74 -36.5 -116t-98.5 -42q-127 0 -127 125z" />
<glyph unicode="&#x3c;" d="M150 696v72l878 473v-137l-688 -373l688 -369v-137z" />
<glyph unicode="=" d="M150 469v121h878v-121h-878zM150 872v121h878v-121h-878z" />
<glyph unicode="&#x3e;" d="M150 225v137l688 369l-688 373v137l878 -473v-72z" />
<glyph unicode="?" horiz-adv-x="1024" d="M268 1212q0 114 114.5 192.5t299.5 78.5q387 0 387 -340q0 -311 -504 -494l-51 -237h-125l64 303q415 154 415 444q0 100 -54 160.5t-144 60.5q-211 0 -254 -290q-148 0 -148 122zM279 109q0 71 36.5 114t98.5 43q60 0 93.5 -34t33.5 -91q0 -73 -36.5 -115t-98.5 -42 q-127 0 -127 125z" />
<glyph unicode="@" horiz-adv-x="1886" d="M133 446q0 439 270 727.5t682 288.5q322 0 507.5 -179.5t185.5 -479.5q0 -278 -124.5 -461.5t-277.5 -183.5q-178 0 -241 186h-11q-97 -186 -276 -186q-139 0 -225 93t-86 257q0 218 141 396.5t381 178.5q114 0 192 -61l82 43h49l-104 -522q-14 -70 -14 -137 q0 -63 33.5 -101.5t91.5 -38.5q101 0 182.5 152.5t81.5 390.5q0 255 -156 402t-424 147q-318 0 -548 -255.5t-230 -651.5q0 -305 163 -470t447 -165q282 0 520 170l48 -74q-275 -203 -588 -203q-352 0 -552 194.5t-200 542.5zM727 479q0 -108 43.5 -160.5t112.5 -52.5 q172 0 221 256l78 416q-29 61 -115 61q-154 0 -247 -168t-93 -352z" />
<glyph unicode="A" horiz-adv-x="1444" d="M-115 0l17 86h39q55 0 92 28.5t98 131.5l713 1216h160l194 -1267q10 -64 35 -86.5t86 -22.5h27l-17 -86h-557l16 86h48q147 0 147 104q0 42 -4 70l-33 229h-538l-123 -215q-39 -68 -39 -114q0 -74 114 -74h48l-17 -86h-506zM469 592h463l-51 358q-31 218 -33 324 q-47 -111 -160 -305z" />
<glyph unicode="B" horiz-adv-x="1339" d="M-43 0l16 86h27q170 0 201 147l213 1004q8 38 8 57q0 82 -148 82h-26l18 86h531q479 0 479 -307q0 -303 -334 -381l-2 -8q250 -50 250 -299q0 -225 -151 -346t-439 -121h-643zM379 102h199q391 0 391 379q0 234 -287 234h-172zM530 817h158q365 0 365 311q0 232 -283 232 h-123z" />
<glyph unicode="C" horiz-adv-x="1284" d="M106 528q0 388 242 671.5t602 283.5q179 0 279 -61.5t100 -166.5q0 -73 -55 -116t-146 -43q0 278 -204 278q-253 0 -423.5 -275.5t-170.5 -602.5q0 -383 364 -383q237 0 379 186q27 -19 27 -68q0 -98 -114 -174.5t-314 -76.5q-267 0 -416.5 143t-149.5 405z" />
<glyph unicode="D" horiz-adv-x="1485" d="M-43 0l16 86h27q170 0 201 147l213 1004q8 38 8 57q0 82 -148 82h-26l18 86h574q279 0 430 -144.5t151 -412.5q0 -392 -223 -648.5t-596 -256.5h-645zM379 104h178q296 0 468.5 227t172.5 597q0 432 -389 432h-162z" />
<glyph unicode="E" horiz-adv-x="1276" d="M-43 0l16 86h27q104 0 144.5 36.5t54.5 100.5l213 1006q6 28 6 49q0 48 -28 73t-116 25h-26l18 86h1032l-65 -358h-107l6 63q5 48 5 56q0 137 -146 137h-344l-117 -545h494l-20 -100h-494l-131 -613h395q173 0 232 168l32 88h107l-90 -358h-1098z" />
<glyph unicode="F" horiz-adv-x="1208" d="M-43 0l16 86h27q96 0 138 33t61 104l215 1014q8 38 8 57q0 82 -148 82h-26l18 86h1032l-65 -358h-107l4 36q1 19 3 36q4 34 4 47q0 137 -154 137h-336l-127 -592h494l-21 -100h-493l-92 -435q-7 -33 -7 -51q0 -96 142 -96h67l-16 -86h-637z" />
<glyph unicode="G" horiz-adv-x="1462" d="M106 528q0 407 250 681t631 274q204 0 318 -62t114 -159q0 -76 -61 -119t-156 -43q0 132 -67 203t-191 71q-253 0 -433.5 -261.5t-180.5 -616.5q0 -400 395 -400q115 0 231 29l68 326q8 38 8 57q0 82 -147 82h-19l19 86h545l-19 -86h-8q-82 0 -120 -36.5t-54 -111.5 l-78 -368q-217 -94 -463 -94q-280 0 -431 143.5t-151 404.5z" />
<glyph unicode="H" horiz-adv-x="1624" d="M-43 0l16 86h27q99 0 142 37.5t59 109.5l213 1004q8 38 8 57q0 82 -148 82h-26l18 86h596l-18 -86h-27q-98 0 -141 -37t-58 -110l-88 -414h666l90 422q8 38 8 57q0 82 -147 82h-27l19 86h596l-19 -86h-26q-98 0 -141 -37.5t-58 -109.5l-213 -1004q-8 -38 -8 -57 q0 -82 147 -82h27l-19 -86h-596l17 86h26q98 0 142 36.5t59 110.5l101 480h-666l-102 -488q-9 -43 -9 -57q0 -82 148 -82h26l-18 -86h-596z" />
<glyph unicode="I" horiz-adv-x="752" d="M-43 0l16 86h27q170 0 201 147l213 1004q8 38 8 57q0 82 -148 82h-26l18 86h596l-18 -86h-27q-98 0 -141 -37t-58 -110l-212 -1004q-9 -43 -9 -57q0 -82 148 -82h26l-18 -86h-596z" />
<glyph unicode="J" horiz-adv-x="731" d="M-317 -469l28 92q51 -18 133 -18q119 0 185 89t108 288l266 1255q9 42 9 57q0 82 -148 82h-26l18 86h596l-18 -86h-27q-98 0 -141 -37t-58 -110l-266 -1245q-54 -251 -171.5 -363.5t-320.5 -112.5q-91 0 -167 23z" />
<glyph unicode="K" horiz-adv-x="1434" d="M-43 0l16 86h27q99 0 142 37.5t59 109.5l213 1004q8 38 8 57q0 82 -148 82h-26l18 86h596l-18 -86h-27q-98 0 -141 -37t-58 -110l-88 -414l-36 -151l528 485q154 141 154 184q0 45 -91 45l17 84h452l-16 -84q-53 0 -118 -35.5t-197 -156.5l-373 -338l248 -598 q68 -164 194 -164h6l-18 -86h-29q-162 0 -241 33.5t-127 156.5l-199 506l-211 -147l-67 -324q-9 -44 -9 -57q0 -82 148 -82h26l-18 -86h-596z" />
<glyph unicode="L" horiz-adv-x="1276" d="M-41 0l18 86h27q96 0 138 37.5t59 109.5l213 1004q8 38 8 57q0 82 -148 82h-26l18 86h596l-18 -86h-27q-97 0 -139 -34.5t-57 -104.5l-242 -1135h403q157 0 219 185l54 153h106l-106 -440h-1096z" />
<glyph unicode="M" horiz-adv-x="1921" d="M-41 0l18 86h27q102 0 141.5 36t53.5 101l215 1014q8 38 8 57q0 82 -148 82h-26l18 86h465l174 -1167l670 1167h457l-19 -86h-26q-98 0 -141 -37.5t-58 -109.5l-213 -1004q-8 -38 -8 -57q0 -82 147 -82h27l-19 -86h-544l18 86h6q87 0 122 32.5t52 96.5l234 1094 l-748 -1309h-110l-199 1309l-229 -1084q-9 -43 -9 -57q0 -82 148 -82h26l-18 -86h-512z" />
<glyph unicode="N" horiz-adv-x="1563" d="M-41 0l18 86h27q96 0 138 37.5t59 109.5l213 1004q8 38 8 57q0 82 -148 82h-26l18 86h373l496 -1130l192 905q8 38 8 57q0 82 -147 82h-27l19 86h514l-19 -86h-26q-98 0 -140.5 -37.5t-58.5 -109.5l-260 -1229h-133l-527 1200l-206 -975q-9 -43 -9 -57q0 -82 148 -82h26 l-18 -86h-512z" />
<glyph unicode="O" horiz-adv-x="1520" d="M106 545q0 352 230 646t590 294q238 0 384 -148t146 -415q0 -351 -228 -648t-585 -297q-243 0 -390 153.5t-147 414.5zM330 487q0 -192 87 -294.5t238 -102.5q255 0 415.5 282.5t160.5 604.5q0 191 -84.5 294t-237.5 103q-256 0 -417.5 -283.5t-161.5 -603.5z" />
<glyph unicode="P" horiz-adv-x="1270" d="M-41 0l18 86h27q96 0 139 37t58 110l213 1004q8 38 8 57q0 82 -148 82h-26l18 86h525q222 0 344 -103t122 -292q0 -233 -156.5 -365.5t-469.5 -132.5h-152l-73 -344q-9 -42 -9 -57q0 -82 148 -82h67l-18 -86h-635zM500 666h108q432 0 432 399q0 299 -299 299h-94z" />
<glyph unicode="Q" horiz-adv-x="1520" d="M106 545q0 352 230 646t590 294q238 0 384 -148t146 -415q0 -311 -191 -598.5t-513 -337.5q9 -183 61.5 -265.5t159.5 -82.5q74 0 139 18l14 -86q-103 -33 -202 -33q-377 0 -394 451q-199 34 -311.5 183t-112.5 374zM330 487q0 -192 87 -294.5t238 -102.5 q255 0 415.5 282.5t160.5 604.5q0 191 -84.5 294t-237.5 103q-256 0 -417.5 -283.5t-161.5 -603.5z" />
<glyph unicode="R" horiz-adv-x="1360" d="M-41 0l19 86h26q102 0 141.5 36t53.5 101l215 1014q8 38 8 57q0 82 -147 82h-27l18 86h537q469 0 469 -348q0 -338 -379 -428l148 -438q36 -105 73 -133.5t95 -28.5h16l-16 -86h-27q-176 0 -249 46.5t-116 193.5l-118 405h-203l-90 -420q-9 -42 -9 -57q0 -82 148 -82h68 l-19 -86h-635zM516 741h158q183 0 282 93.5t99 267.5q0 136 -60.5 199t-207.5 63h-140z" />
<glyph unicode="S" horiz-adv-x="1114" d="M14 272q0 71 44.5 113.5t113.5 42.5q0 -157 83 -252.5t228 -95.5q143 0 227.5 71t84.5 193q0 97 -48.5 164t-209.5 158q-164 95 -227.5 195t-63.5 226q0 177 134 286.5t363 109.5q178 0 284 -62t106 -159q0 -142 -181 -142q0 120 -57 190t-168 70q-122 0 -200 -70 t-78 -188q0 -87 41.5 -150.5t211.5 -162.5q161 -94 232.5 -187t71.5 -212q0 -203 -142 -316.5t-395 -113.5q-209 0 -332 82.5t-123 209.5z" />
<glyph unicode="T" horiz-adv-x="1255" d="M156 1104l86 358h1153l-66 -358h-106q10 80 10 125q0 131 -135 131h-199l-242 -1135q-8 -38 -8 -57q0 -82 148 -82h47l-19 -86h-637l19 86h47q103 0 143 35.5t54 101.5l241 1137h-196q-146 0 -205 -168l-29 -88h-106z" />
<glyph unicode="U" horiz-adv-x="1495" d="M197 334q0 83 22 182l152 721q8 38 8 57q0 82 -148 82h-26l18 86h596l-16 -86h-27q-96 0 -140 -36.5t-61 -110.5l-153 -723q-25 -118 -25 -191q0 -213 295 -213q166 0 263 74t135 246l174 815q8 37 8 57q0 82 -148 82h-26l18 86h514l-16 -86h-27q-96 0 -140 -36.5 t-61 -110.5l-172 -811q-93 -438 -552 -438q-226 0 -345.5 92t-119.5 262z" />
<glyph unicode="V" horiz-adv-x="1382" d="M168 1376l18 86h557l-16 -86h-47q-66 0 -107 -27.5t-41 -76.5q0 -35 5 -70l81 -665q21 -172 21 -336q76 177 166 336l364 651q39 70 39 115q0 73 -114 73h-47l16 86h506l-19 -86h-39q-69 0 -103.5 -35t-84.5 -124l-682 -1217h-149l-175 1268q-8 61 -33.5 84.5t-88.5 23.5 h-27z" />
<glyph unicode="W" horiz-adv-x="2140" d="M182 1376l19 86h557l-19 -86h-47q-147 0 -147 -104q0 -42 4 -70l49 -655q14 -187 14 -346q86 202 168 368l430 879h148l67 -887q12 -159 12 -291q0 -35 -1 -69q90 209 153 336l326 651q39 78 39 115q0 73 -115 73h-49l16 86h500l-18 -86h-39q-66 0 -103.5 -32t-85.5 -127 l-604 -1217h-188l-92 1135l-551 -1135h-187l-106 1268q-5 55 -30 81.5t-93 26.5h-27z" />
<glyph unicode="X" horiz-adv-x="1352" d="M-100 0l18 86h8q67 0 119.5 35t122.5 112l453 494l-220 545q-42 104 -159 104h-27l18 86h555l-18 -86h-47q-96 0 -96 -57q0 -29 37 -123l116 -299l256 295q78 90 78 133q0 51 -98 51h-6l18 86h449l-19 -86h-18q-56 0 -100.5 -30t-131.5 -123l-387 -428l246 -600 q45 -109 141 -109h27l-18 -86h-553l18 86h23q61 0 96 20.5t35 51.5q0 42 -39 141l-133 326l-306 -340q-82 -91 -82 -144q0 -55 121 -55h6l-18 -86h-485z" />
<glyph unicode="Y" horiz-adv-x="1280" d="M158 1376l18 86h553l-18 -86h-103q-84 0 -84 -55q0 -40 27 -119l92 -274q49 -146 55 -246q20 38 154 215l195 260q75 100 75 166q0 53 -98 53h-76l19 86h506l-19 -86h-39q-39 0 -77.5 -31.5t-108.5 -123.5l-477 -625l-80 -371q-8 -37 -8 -57q0 -82 147 -82h47l-18 -86 h-637l18 86h47q103 0 143 35.5t54 101.5l80 377l-238 668q-23 65 -45.5 86.5t-77.5 21.5h-26z" />
<glyph unicode="Z" horiz-adv-x="1239" d="M-35 0l17 82l1030 1278h-477q-151 0 -205 -168l-29 -88h-106l86 358h1011l-16 -84l-1032 -1276h547q152 0 206 168l29 88h107l-86 -358h-1082z" />
<glyph unicode="[" horiz-adv-x="737" d="M10 -262l387 1818h457l-18 -86h-88q-96 0 -139.5 -36t-59.5 -111l-291 -1360q-8 -37 -8 -57q0 -82 147 -82h88l-18 -86h-457z" />
<glyph unicode="\" horiz-adv-x="590" d="M231 1556h119l88 -1804h-121z" />
<glyph unicode="]" horiz-adv-x="737" d="M-96 -262l18 86h88q96 0 139 37t58 110l291 1360q8 37 8 58q0 81 -148 81h-88l19 86h456l-387 -1818h-454z" />
<glyph unicode="^" d="M121 545l431 917h72l431 -917h-137l-330 729l-330 -729h-137z" />
<glyph unicode="_" horiz-adv-x="940" d="M-186 -291l26 121h959l-27 -121h-958z" />
<glyph unicode="`" horiz-adv-x="1182" d="M565 1548l6 21h205q60 -155 137 -301l-6 -27h-78q-154 150 -264 307z" />
<glyph unicode="a" horiz-adv-x="1186" d="M88 354q0 282 175.5 523t434.5 241q139 0 240 -74l90 52h66l-140 -656q-30 -141 -30 -227q0 -104 67 -104q58 0 148 53l37 -60q-147 -122 -289 -122q-160 0 -160 170q0 65 21 159h-13q-147 -329 -383 -329q-125 0 -194.5 98.5t-69.5 275.5zM297 346q0 -237 129 -237 q102 0 214 151t148 330l76 362q-47 74 -155 74q-175 0 -293.5 -222.5t-118.5 -457.5z" />
<glyph unicode="b" horiz-adv-x="1151" d="M55 -6l271 1272q18 84 18 108q0 96 -143 96h-17l19 86h387l-98 -460q-21 -99 -74 -271h10q151 293 375 293q122 0 191 -94t69 -276q0 -285 -176 -526.5t-434 -241.5q-147 0 -240 73l-92 -59h-66zM285 145q62 -73 159 -73q178 0 294 227t116 451q0 239 -129 239 q-112 0 -218.5 -155.5t-133.5 -282.5z" />
<glyph unicode="c" horiz-adv-x="997" d="M88 403q0 268 173 491.5t437 223.5q141 0 220 -56t79 -140q0 -62 -49.5 -103t-132.5 -41q0 109 -42 175.5t-116 66.5q-143 0 -249.5 -214t-106.5 -419q0 -278 225 -278q179 0 295 147q21 -13 21 -51q0 -82 -96.5 -153.5t-258.5 -71.5q-179 0 -289 113t-110 310z" />
<glyph unicode="d" horiz-adv-x="1186" d="M88 354q0 282 175.5 523t434.5 241q115 0 201 -49q16 94 23 115l20 98q14 69 14 92q0 96 -143 96h-16l18 86h377l-238 -1116q-30 -141 -30 -227q0 -104 67 -104q58 0 148 53l37 -60q-147 -122 -289 -122q-160 0 -160 170q0 65 21 159h-13q-147 -329 -383 -329 q-125 0 -194.5 98.5t-69.5 275.5zM297 346q0 -237 129 -237q102 0 214 151t148 330l76 362q-47 74 -155 74q-175 0 -293.5 -222.5t-118.5 -457.5z" />
<glyph unicode="e" horiz-adv-x="1010" d="M88 403q0 268 173 491.5t437 223.5q130 0 201.5 -62t71.5 -173q0 -166 -172.5 -289t-421.5 -123h-35q-18 0 -37 2q-4 -28 -4 -86q0 -278 225 -278q175 0 295 147q21 -13 21 -51q0 -82 -96.5 -153.5t-258.5 -71.5q-179 0 -289 113t-110 310zM324 567h20q181 0 298.5 88 t117.5 228q0 137 -119 137q-99 0 -185 -124.5t-132 -328.5z" />
<glyph unicode="f" horiz-adv-x="651" d="M-287 -475l19 94q51 -14 94 -14q99 0 156 85t102 292l215 999h-186l12 74l197 43l22 112q72 367 389 367q131 0 197.5 -41.5t66.5 -110.5q0 -133 -170 -133q0 191 -104 191q-75 0 -116.5 -62t-65.5 -192l-27 -131h227l-22 -117h-230l-213 -997q-53 -247 -155 -361.5 t-289 -114.5q-58 0 -119 17z" />
<glyph unicode="g" horiz-adv-x="1139" d="M-72 -225q0 110 89.5 187.5t244.5 107.5q-98 48 -98 141q0 63 40.5 107t153.5 102q-143 67 -143 242q0 173 130.5 314.5t344.5 141.5q131 0 211 -65q97 145 221 145q103 0 103 -94q0 -127 -121 -127q0 74 -57 74q-40 0 -101 -47q45 -64 45 -158q0 -172 -129 -315.5 t-340 -143.5q-47 0 -65 4q-146 -59 -146 -129q0 -51 105 -61l196 -21q318 -34 318 -268q0 -191 -144 -297.5t-411 -106.5q-447 0 -447 267zM94 -213q0 -178 289 -178q180 0 274.5 66.5t94.5 179.5q0 134 -191 151l-199 19h-1q-17 0 -87 -20q-74 -21 -127 -78t-53 -140z M403 653q0 -168 142 -168q117 0 188.5 116.5t71.5 254.5q0 168 -141 168q-120 0 -190.5 -117.5t-70.5 -253.5z" />
<glyph unicode="h" horiz-adv-x="1227" d="M90 0l266 1266q19 90 19 108q0 96 -144 96h-16l18 86h377l-80 -376q-36 -168 -81 -340h22q170 276 379 276q219 0 219 -227q0 -65 -37 -225l-53 -242q-27 -123 -27 -215q0 -98 72 -98q59 0 131 47l37 -60q-134 -116 -250 -116q-85 0 -135.5 55t-50.5 149t39 277l47 212 q30 124 30 191q0 121 -94 121q-114 0 -234.5 -155.5t-152.5 -305.5l-110 -524h-191z" />
<glyph unicode="i" horiz-adv-x="623" d="M127 1012l18 86h367l-139 -658q-31 -147 -31 -227q0 -104 68 -104q59 0 147 53l37 -60q-142 -122 -277 -122q-76 0 -123 55t-47 139q0 92 46 322l79 376q7 33 7 54q0 86 -125 86h-27zM344 1415q0 65 33.5 104.5t89.5 39.5q115 0 115 -113q0 -70 -34.5 -106.5t-88.5 -36.5 q-115 0 -115 112z" />
<glyph unicode="j" horiz-adv-x="596" d="M-287 -475l19 94q51 -14 94 -14q103 0 161.5 91.5t98.5 287.5l188 888q7 33 7 54q0 86 -125 86h-27l18 86h367l-235 -1114q-52 -244 -155.5 -360t-291.5 -116q-58 0 -119 17zM346 1415q0 65 33.5 104.5t89.5 39.5q115 0 115 -113q0 -70 -34.5 -106.5t-88.5 -36.5 q-115 0 -115 112z" />
<glyph unicode="k" horiz-adv-x="1165" d="M90 0l266 1266q19 90 19 108q0 96 -144 96h-16l18 86h377l-80 -376q-110 -517 -159 -674l323 280q151 131 151 193q0 31 -91 31l18 86h453l-19 -86q-119 0 -329 -191l-185 -170l187 -405q79 -172 208 -172l-18 -86q-170 0 -250 39.5t-135 171.5l-133 327l-186 -118 l-84 -406h-191z" />
<glyph unicode="l" horiz-adv-x="623" d="M150 174q0 97 45 322l167 786q13 61 13 92q0 96 -144 96h-24l18 86h387l-237 -1116q-31 -146 -31 -227q0 -104 68 -104q59 0 147 53l37 -60q-142 -122 -277 -122q-74 0 -121.5 54t-47.5 140z" />
<glyph unicode="m" horiz-adv-x="1835" d="M90 0l172 823q12 57 12 92q0 97 -143 97h-16l18 86h379l-55 -258h20q166 276 373 276q219 0 219 -227q0 -25 -4 -49h20q167 276 373 276q219 0 219 -227q0 -65 -37 -225l-53 -242q-26 -119 -26 -215q0 -98 71 -98q59 0 131 47l37 -60q-130 -116 -250 -116q-84 0 -135 55 t-51 149t39 277l35 160q43 197 43 243q0 121 -95 121q-105 0 -217 -134.5t-157 -281.5l-33 -147q-13 -56 -36 -219t-23 -203h-195q0 46 26 212.5t44 248.5l47 212q30 124 30 191q0 121 -94 121q-114 0 -234.5 -155.5t-152.5 -305.5l-110 -524h-191z" />
<glyph unicode="n" horiz-adv-x="1227" d="M90 0l172 823q12 57 12 92q0 97 -143 97h-16l18 86h379l-55 -258h20q166 276 373 276q219 0 219 -227q0 -65 -37 -225l-53 -242q-27 -123 -27 -215q0 -98 72 -98q59 0 131 47l37 -60q-134 -116 -250 -116q-85 0 -135.5 55t-50.5 149t39 277l47 212q30 124 30 191 q0 121 -94 121q-114 0 -233.5 -154t-153.5 -307l-110 -524h-191z" />
<glyph unicode="o" horiz-adv-x="1176" d="M88 403q0 276 168.5 495.5t441.5 219.5q181 0 285 -109t104 -315q0 -273 -167 -493.5t-439 -220.5q-185 0 -289 112t-104 311zM301 362q0 -282 203 -282q169 0 269.5 200.5t100.5 444.5q0 285 -200 285q-167 0 -270 -201t-103 -447z" />
<glyph unicode="p" horiz-adv-x="1182" d="M-14 -492l272 1299q18 86 18 108q0 97 -143 97h-16l18 86h363l-49 -273h10q148 293 375 293q125 0 192.5 -95t67.5 -275q0 -275 -171.5 -521.5t-439.5 -246.5q-117 0 -200 47q-9 -66 -17 -99l-28 -125q-19 -85 -19 -114q0 -95 143 -95h27l-18 -86h-385zM315 145 q66 -73 162 -73q171 0 289.5 223.5t118.5 454.5q0 239 -129 239q-106 0 -214 -147.5t-143 -306.5z" />
<glyph unicode="q" horiz-adv-x="1147" d="M88 354q0 282 175.5 523t434.5 241q128 0 228 -55l50 28q48 27 52 27h72l-283 -1335q-12 -57 -12 -92q0 -97 141 -97h17l-19 -86h-373l86 410q8 39 91 391h-13q-149 -329 -383 -329q-124 0 -194 98.5t-70 275.5zM297 344q0 -235 129 -235q101 0 212 148.5t150 332.5 l76 362q-45 74 -155 74q-177 0 -294.5 -226t-117.5 -456z" />
<glyph unicode="r" horiz-adv-x="958" d="M90 0l172 823q12 57 12 92q0 97 -163 97h-17l19 86h362l-43 -295h21q82 183 162 249t186 66q168 0 168 -141q0 -156 -170 -156q0 162 -82 162q-95 0 -201.5 -187t-157.5 -423l-77 -373h-191z" />
<glyph unicode="s" horiz-adv-x="950" d="M51 211q0 66 36.5 100.5t92.5 34.5q0 -127 61.5 -197.5t172.5 -70.5q221 0 221 190q0 73 -47 123.5t-160 102.5q-147 70 -197.5 144.5t-50.5 172.5q0 134 109.5 219.5t285.5 85.5q151 0 235.5 -56t84.5 -138q0 -127 -154 -127q0 103 -48.5 165t-135.5 62 q-92 0 -145.5 -49.5t-53.5 -126.5q0 -68 51 -116t158 -95q246 -110 246 -318q0 -151 -116 -244t-308 -93q-155 0 -246.5 62.5t-91.5 168.5z" />
<glyph unicode="t" horiz-adv-x="754" d="M141 981l19 82q200 0 313 287h94l-53 -252h248l-25 -117h-248l-124 -584q-25 -118 -25 -176q0 -112 109 -112q83 0 167 45l35 -76q-138 -98 -276 -98q-223 0 -223 239q0 77 20 172l125 590h-156z" />
<glyph unicode="u" horiz-adv-x="1227" d="M117 1012l18 86h381l-135 -613q-41 -186 -41 -247q0 -125 100 -125q105 0 226.5 151.5t158.5 323.5l107 510h198l-141 -658q-31 -145 -31 -227q0 -104 68 -104q58 0 131 45l37 -60q-130 -114 -260 -114q-77 0 -124.5 55t-47.5 139q0 53 10 121h-16q-111 -183 -198.5 -248 t-197.5 -65q-219 0 -219 227q0 65 37 225l80 359q18 81 18 122q0 97 -143 97h-16z" />
<glyph unicode="v" horiz-adv-x="1102" d="M35 1012l16 86h307l95 -606q36 -232 47 -363h6q153 147 265 343.5t112 315.5q0 72 -35 114t-92 42q0 74 40 119t99 45q139 0 139 -190q0 -186 -141.5 -435.5t-368.5 -480.5l-184 -20l-143 921q-17 109 -142 109h-20z" />
<glyph unicode="w" horiz-adv-x="1677" d="M76 1012l28 86h308q6 -432 6 -934h8q267 469 457 915l170 8q43 -539 43 -937h14q167 205 276 405.5t109 318.5q0 94 -88 123q18 121 121 121q108 0 108 -153q0 -295 -514 -963l-202 -22l-31 886q-93 -221 -432 -860l-211 -24l-15 882q-1 72 -28.5 110t-106.5 38h-20z" />
<glyph unicode="x" horiz-adv-x="1118" d="M-41 0l23 86h26q56 0 97.5 25.5t115.5 115.5l262 318l-133 319q-39 95 -64.5 121.5t-82.5 26.5h-27l17 86h272l156 -414l272 414h262l-33 -86h-26q-60 0 -100.5 -29t-112.5 -119l-215 -276l141 -355q36 -92 61.5 -119.5t85.5 -27.5h27l-16 -86h-275l-166 451l-307 -451 h-260z" />
<glyph unicode="y" horiz-adv-x="1081" d="M-332 -455l31 103q72 -23 160 -23q293 0 575 373l-270 905q-18 60 -49 84.5t-92 24.5h-21l16 86h299l160 -553q74 -257 86 -371h6q277 421 277 680q0 111 -101 111q0 69 40 110t94 41q139 0 139 -172q0 -247 -276 -694.5t-442.5 -594.5t-438.5 -147q-108 0 -193 37z" />
<glyph unicode="z" horiz-adv-x="1047" d="M-2 0l16 82l697 899h-260q-71 0 -109.5 -34t-83.5 -132l-4 -8h-86l82 291h717l-17 -84l-698 -897h364q49 0 89.5 31t85.5 137l20 47h86l-80 -332h-819z" />
<glyph unicode="{" horiz-adv-x="877" d="M123 606l18 86q128 5 196.5 58t90.5 157l76 355q29 129 70 184.5t109 82.5t179 27h135l-18 -88h-61q-91 0 -142 -54.5t-74 -160.5l-75 -352q-22 -102 -90.5 -166t-190.5 -84v-8q91 -15 136.5 -63.5t45.5 -122.5q0 -16 -2.5 -31.5t-5.5 -32.5l-76 -352q-5 -25 -7.5 -46 t-2.5 -40q0 -63 32 -96t101 -33h62l-19 -88h-135q-121 0 -182.5 53.5t-61.5 153.5q0 20 3 41.5t8 44.5l75 358q5 19 7 34.5t2 31.5q0 72 -48.5 109t-154.5 42z" />
<glyph unicode="|" d="M526 -492v2048h123v-2048h-123z" />
<glyph unicode="}" horiz-adv-x="877" d="M-102 -262l18 88h61q91 0 142 55t74 160l75 354q22 102 90.5 167t190.5 85v8q-91 16 -136.5 63t-45.5 122q0 15 2.5 30.5t5.5 32.5l76 350q5 25 7.5 46.5t2.5 39.5q0 63 -32 96t-101 33h-62l19 88h135q121 0 182.5 -53t61.5 -153q0 -20 -3 -41.5t-8 -44.5l-75 -357 q-5 -18 -7 -34t-2 -31q0 -74 51 -111t152 -39l-18 -86q-131 -5 -198.5 -59.5t-88.5 -157.5l-76 -356q-28 -128 -68.5 -183.5t-110 -83.5t-179.5 -28h-135z" />
<glyph unicode="~" d="M127 551q28 358 258 358q94 0 248 -135q107 -102 168 -102q57 0 84 62t41 175h123q-39 -358 -258 -358q-97 0 -238 129q-118 108 -176 108q-60 0 -89 -58.5t-40 -178.5h-121z" />
<glyph unicode="&#xa1;" horiz-adv-x="682" d="M23 -367l294 1051h95l-152 -1051h-237zM285 954q0 74 36.5 116t98.5 42q127 0 127 -125q0 -71 -36.5 -114.5t-98.5 -43.5q-127 0 -127 125z" />
<glyph unicode="&#xa2;" d="M172 600q0 249 155 468.5t406 244.5l33 149h102l-32 -151q116 -11 180.5 -64.5t64.5 -128.5q0 -62 -49.5 -102.5t-132.5 -40.5q0 166 -88 221l-188 -891q169 6 282 148q21 -15 21 -52q0 -79 -88 -149t-242 -76l-37 -176h-102l39 182q-156 26 -240 136t-84 282zM385 584 q0 -214 139 -265l189 893q-138 -25 -233 -232t-95 -396z" />
<glyph unicode="&#xa3;" d="M-2 80l72 41q295 168 295 442q0 50 -15 127h-227l22 103h189q-27 126 -27 206q0 226 135.5 355t364.5 129q155 0 247.5 -56t92.5 -145q0 -162 -170 -162q0 260 -201 260q-139 0 -214 -96.5t-75 -271.5q0 -80 29 -219h348l-22 -103h-312q7 -44 7 -108q0 -237 -258 -389 l2 -9q84 37 157 37q60 0 179 -39q118 -39 159 -39q114 0 205 93l55 -68q-185 -188 -348 -188q-65 0 -189 46t-198 46q-114 0 -238 -60l-28 -14z" />
<glyph unicode="&#xa4;" d="M147 379l134 135q-68 99 -68 219q0 124 70 219l-136 135l86 87l134 -136q99 72 221 72q116 0 217 -72l137 138l86 -89l-135 -135q72 -99 72 -219t-72 -219l135 -135l-84 -86l-137 135q-104 -70 -219 -70q-124 0 -219 70l-136 -135zM328 733q0 -107 76.5 -184.5 t183.5 -77.5q108 0 185 77.5t77 184.5q0 110 -76 187t-186 77q-108 0 -184 -77t-76 -187z" />
<glyph unicode="&#xa5;" d="M141 0l18 86h47q104 0 144 36t53 101l29 139h-287l20 97h287l31 143h-287l21 96h247l-157 570q-16 58 -39 83t-84 25h-6l18 86h479l-18 -86h-4q-69 0 -105 -13t-36 -56t24 -131l53 -220q35 -146 43 -249q22 39 107 167l170 250q92 135 92 193q0 59 -111 59h-6l19 86h417 l-18 -86h-18q-46 0 -78 -23.5t-111 -135.5l-360 -519h254l-21 -96h-286l-31 -143h287l-21 -97h-287l-28 -137q-9 -44 -9 -57q0 -82 148 -82h47l-18 -86h-629z" />
<glyph unicode="&#xa6;" d="M510 328h123v-820h-123v820zM510 737v819h123v-819h-123z" />
<glyph unicode="&#xa7;" horiz-adv-x="1114" d="M41 -4q0 65 36.5 100t92.5 35q0 -120 67 -193t183 -73q125 0 202.5 66.5t77.5 174.5q0 65 -51.5 125t-240.5 162q-228 124 -228 330q0 166 180 278q-49 83 -49 185q0 168 123 269t314 101q143 0 233 -60t90 -144q0 -74 -37 -108t-129 -34q0 115 -49.5 182.5t-144.5 67.5 q-100 0 -171 -56t-71 -153q0 -80 41.5 -133.5t228.5 -154.5q250 -134 250 -318q0 -172 -178 -309q41 -76 41 -152q0 -183 -127 -301.5t-336 -118.5q-157 0 -252.5 63.5t-95.5 168.5zM324 799q0 -76 50 -130t187 -130q121 -67 199 -138q76 83 76 156q0 123 -211 238 q-145 79 -219 149q-82 -60 -82 -145z" />
<glyph unicode="&#xa8;" horiz-adv-x="1182" d="M412 1397q0 129 110 129q103 0 103 -103q0 -129 -111 -129q-102 0 -102 103zM801 1397q0 129 110 129q103 0 103 -103q0 -129 -111 -129q-102 0 -102 103z" />
<glyph unicode="&#xa9;" horiz-adv-x="1731" d="M129 731q0 311 221 532.5t531 221.5q309 0 531 -221.5t222 -532.5q0 -309 -221 -530t-532 -221q-312 0 -532 221t-220 530zM242 731q0 -262 187 -450.5t452 -188.5q264 0 452.5 188t188.5 451q0 264 -188.5 452.5t-452.5 188.5q-265 0 -452 -189t-187 -452zM481 733 q0 210 117 331.5t322 121.5q132 0 206 -40t74 -106q0 -43 -39 -69.5t-100 -26.5q0 156 -146 156q-266 0 -266 -367q0 -177 69 -272.5t200 -95.5q170 0 251 139q29 -21 29 -64q0 -64 -83.5 -114t-223.5 -50q-194 0 -302 120t-108 337z" />
<glyph unicode="&#xaa;" horiz-adv-x="805" d="M123 1008q0 166 119.5 312t300.5 146q98 0 164 -43l63 29h45l-96 -379q-21 -83 -21 -131q0 -61 41 -61q35 0 88 32l23 -39q-93 -92 -178 -92q-113 0 -113 103q0 57 14 110h-8q-107 -213 -262 -213q-86 0 -133 60t-47 166zM301 1012q0 -133 70 -133q54 0 115.5 85.5 t88.5 182.5l54 203q-29 41 -90 41q-102 0 -170 -125.5t-68 -253.5z" />
<glyph unicode="&#xab;" horiz-adv-x="1053" d="M125 520l14 66l389 356h103l-295 -399l129 -379h-103zM496 520l14 66l389 356h102l-294 -399l129 -379h-103z" />
<glyph unicode="&#xac;" d="M150 672v121h878v-541h-123v420h-755z" />
<glyph unicode="&#xad;" horiz-adv-x="635" d="M29 481l32 154h533l-33 -154h-532z" />
<glyph unicode="&#xae;" horiz-adv-x="1731" d="M129 731q0 311 221 532.5t531 221.5q309 0 531 -221.5t222 -532.5q0 -309 -221 -530t-532 -221q-312 0 -532 221t-220 530zM242 731q0 -262 187 -450.5t452 -188.5q264 0 452.5 188t188.5 451q0 264 -188.5 452.5t-452.5 188.5q-265 0 -452 -189t-187 -452zM494 289v69 h26q101 0 101 72v600q0 72 -101 72h-26v72h368q352 0 352 -244q0 -164 -186 -225l182 -293q20 -33 40.5 -43.5t74.5 -10.5v-69h-217l-225 381h-109v-240q0 -72 100 -72h29v-69h-409zM774 748h86q103 0 148 40t45 140q0 91 -46 128.5t-153 37.5h-80v-346z" />
<glyph unicode="&#xaf;" horiz-adv-x="940" d="M156 1556l26 121h959l-27 -121h-958z" />
<glyph unicode="&#xb0;" horiz-adv-x="819" d="M172 1151q0 130 91.5 220.5t217.5 90.5q128 0 220 -91t92 -220q0 -127 -91 -218t-221 -91q-128 0 -218.5 90.5t-90.5 218.5zM295 1151q0 -78 55.5 -133t130.5 -55q79 0 134 55t55 133q0 80 -55.5 135t-133.5 55q-75 0 -130.5 -54.5t-55.5 -135.5z" />
<glyph unicode="&#xb1;" d="M150 0v121h878v-121h-878zM150 672v121h376v378h123v-378h379v-121h-379v-379h-123v379h-376z" />
<glyph unicode="&#xb2;" horiz-adv-x="819" d="M41 586l10 61l318 262q111 91 166 175.5t55 197.5q0 119 -103 119q-62 0 -107.5 -53.5t-57.5 -141.5q-62 0 -97 27.5t-35 71.5q0 77 84.5 127.5t227.5 50.5q124 0 196 -54t72 -141q0 -97 -62.5 -181t-220.5 -210l-245 -195h282q77 0 109 84l16 43h70l-57 -243h-621z" />
<glyph unicode="&#xb3;" horiz-adv-x="819" d="M80 731q0 111 117 111q0 -75 45 -125.5t120 -50.5q195 0 195 182q0 69 -49 111t-137 42h-68l16 84h68q97 0 162 62t65 158t-94 96q-136 0 -172 -178q-135 0 -135 86q0 73 84.5 123.5t228.5 50.5q131 0 204 -51t73 -136q0 -189 -262 -241l-2 -11q206 -27 206 -188 q0 -133 -107.5 -208t-289.5 -75q-130 0 -199 43t-69 115z" />
<glyph unicode="&#xb4;" horiz-adv-x="1182" d="M502 1241l6 27q117 135 219 301h219l-6 -21q-157 -183 -356 -307h-82z" />
<glyph unicode="&#xb5;" horiz-adv-x="1237" d="M-4 -344q0 91 61 310q87 314 125 495l135 637h193l-135 -641q-23 -109 -23 -189q0 -157 150 -157q106 0 188 90t113 241l139 656h193l-164 -766q-25 -117 -25 -158q0 -65 60 -65q44 0 112 34l35 -69q-136 -94 -238 -94q-145 0 -153 196h-10q-133 -196 -297 -196 q-169 0 -232 120q-33 -170 -33 -247q0 -149 113 -166q-19 -179 -174 -179q-133 0 -133 148z" />
<glyph unicode="&#xb6;" horiz-adv-x="1264" d="M98 1192q0 364 318 364h780v-86h-27q-98 0 -133 -37.5t-35 -109.5v-1317q0 -72 35 -109.5t133 -37.5h27v-86h-319v1679h-195v-1679h-320v86h27q99 0 133.5 38t34.5 109v785h-145q-314 0 -314 401z" />
<glyph unicode="&#xb7;" horiz-adv-x="586" d="M170 713q0 71 36.5 114t98.5 43q127 0 127 -125q0 -73 -36.5 -115t-98.5 -42q-127 0 -127 125z" />
<glyph unicode="&#xb8;" horiz-adv-x="682" d="M72 -469l22 104q70 -16 137 -16q152 0 152 125q0 102 -131 115l78 159h96l-39 -88q74 -10 119 -58t45 -112q0 -119 -86.5 -185.5t-239.5 -66.5q-79 0 -153 23z" />
<glyph unicode="&#xb9;" horiz-adv-x="819" d="M135 588l15 69h94q50 0 71.5 20t28.5 58l125 590h-8q-52 -41 -89 -65.5t-85 -24.5q-34 0 -51 23.5t-15 60.5q81 7 148 34.5t213 119.5h102l-143 -678q-5 -23 -10 -47t-5 -39q0 -34 21.5 -43t50.5 -9h94l-14 -69h-543z" />
<glyph unicode="&#xba;" horiz-adv-x="813" d="M137 1036q0 162 117 297t303 135q130 0 204.5 -66.5t74.5 -184.5q0 -164 -115 -300.5t-301 -136.5q-133 0 -208 68.5t-75 187.5zM317 1014q0 -152 103 -152q99 0 161 118.5t62 260.5q0 145 -100 145q-98 0 -162 -119t-64 -253z" />
<glyph unicode="&#xbb;" horiz-adv-x="1053" d="M49 164l299 399l-133 379h102l238 -356l-14 -66l-389 -356h-103zM420 164l299 399l-133 379h102l238 -356l-15 -66l-389 -356h-102z" />
<glyph unicode="&#xbc;" horiz-adv-x="1720" d="M68 588l15 69h94q50 0 71.5 20t28.5 58l125 590h-8q-52 -41 -89 -65.5t-85 -24.5q-34 0 -51 23.5t-15 60.5q81 7 148 34.5t213 119.5h102l-143 -678q-5 -23 -10 -47t-5 -39q0 -34 21.5 -43t50.5 -9h94l-14 -69h-543zM277 0l1032 1462h139l-1028 -1462h-143zM892 261 l11 70l501 555h164l-112 -537h196l-18 -88h-197l-18 -84q-8 -37 -8 -55q0 -52 71 -52h41l-14 -69h-451l15 69h57q85 0 100 78l25 113h-363zM1030 349h243l50 223q25 113 41 160l-43 -59z" />
<glyph unicode="&#xbd;" horiz-adv-x="1720" d="M68 588l15 69h94q50 0 71.5 20t28.5 58l125 590h-8q-52 -41 -89 -65.5t-85 -24.5q-34 0 -51 23.5t-15 60.5q81 7 148 34.5t213 119.5h102l-143 -678q-5 -23 -10 -47t-5 -39q0 -34 21.5 -43t50.5 -9h94l-14 -69h-543zM256 0l1032 1462h139l-1028 -1462h-143zM922 1l10 61 l318 262q111 91 166 175.5t55 197.5q0 119 -103 119q-62 0 -107.5 -53.5t-57.5 -141.5q-62 0 -97 27.5t-35 71.5q0 77 84.5 127.5t227.5 50.5q124 0 196 -54t72 -141q0 -97 -62.5 -181t-220.5 -210l-245 -195h282q77 0 109 84l16 43h70l-57 -243h-621z" />
<glyph unicode="&#xbe;" horiz-adv-x="1720" d="M38 731q0 111 117 111q0 -75 45 -125.5t120 -50.5q195 0 195 182q0 69 -49 111t-137 42h-68l16 84h68q97 0 162 62t65 158t-94 96q-136 0 -172 -178q-135 0 -135 86q0 73 84.5 123.5t228.5 50.5q131 0 204 -51t73 -136q0 -189 -262 -241l-2 -11q206 -27 206 -188 q0 -133 -107.5 -208t-289.5 -75q-130 0 -199 43t-69 115zM332 0l1032 1462h139l-1028 -1462h-143zM913 261l11 70l501 555h164l-112 -537h196l-18 -88h-197l-18 -84q-8 -37 -8 -55q0 -52 71 -52h41l-14 -69h-451l15 69h57q85 0 100 78l25 113h-363zM1051 349h243l50 223 q25 113 41 160l-43 -59z" />
<glyph unicode="&#xbf;" horiz-adv-x="1024" d="M2 -49q0 311 504 493l51 238h125l-64 -303q-415 -152 -415 -445q0 -100 54 -160.5t144 -60.5q212 0 254 291q148 0 148 -123q0 -113 -114.5 -191.5t-299.5 -78.5q-387 0 -387 340zM530 952q0 75 37 116.5t99 41.5q127 0 127 -125q0 -71 -37 -114.5t-99 -43.5 q-60 0 -93.5 34.5t-33.5 90.5z" />
<glyph unicode="&#xc0;" horiz-adv-x="1444" d="M-115 0l17 86h39q55 0 92 28.5t98 131.5l713 1216h160l194 -1267q10 -64 35 -86.5t86 -22.5h27l-17 -86h-557l16 86h48q147 0 147 104q0 42 -4 70l-33 229h-538l-123 -215q-39 -68 -39 -114q0 -74 114 -74h48l-17 -86h-506zM469 592h463l-51 358q-31 218 -33 324 q-47 -111 -160 -305zM659 1886l6 21h205q60 -155 137 -301l-6 -27h-78q-154 150 -264 307z" />
<glyph unicode="&#xc1;" horiz-adv-x="1444" d="M-115 0l17 86h39q55 0 92 28.5t98 131.5l713 1216h160l194 -1267q10 -64 35 -86.5t86 -22.5h27l-17 -86h-557l16 86h48q147 0 147 104q0 42 -4 70l-33 229h-538l-123 -215q-39 -68 -39 -114q0 -74 114 -74h48l-17 -86h-506zM469 592h463l-51 358q-31 218 -33 324 q-47 -111 -160 -305zM832 1579l6 27q117 135 219 301h219l-6 -21q-157 -183 -356 -307h-82z" />
<glyph unicode="&#xc2;" horiz-adv-x="1444" d="M-115 0l17 86h39q55 0 92 28.5t98 131.5l713 1216h160l194 -1267q10 -64 35 -86.5t86 -22.5h27l-17 -86h-557l16 86h48q147 0 147 104q0 42 -4 70l-33 229h-538l-123 -215q-39 -68 -39 -114q0 -74 114 -74h48l-17 -86h-506zM469 592h463l-51 358q-31 218 -33 324 q-47 -111 -160 -305zM611 1579l6 27q186 183 270 301h195q29 -117 139 -301l-6 -27h-72q-95 65 -182 184q-150 -127 -262 -184h-88z" />
<glyph unicode="&#xc3;" horiz-adv-x="1444" d="M-115 0l17 86h39q55 0 92 28.5t98 131.5l713 1216h160l194 -1267q10 -64 35 -86.5t86 -22.5h27l-17 -86h-557l16 86h48q147 0 147 104q0 42 -4 70l-33 229h-538l-123 -215q-39 -68 -39 -114q0 -74 114 -74h48l-17 -86h-506zM469 592h463l-51 358q-31 218 -33 324 q-47 -111 -160 -305zM545 1600q72 241 268 241q82 0 169 -64q87 -65 124 -65q89 0 123 109h92q-72 -242 -266 -242q-81 0 -169 65q-89 64 -126 64q-88 0 -123 -108h-92z" />
<glyph unicode="&#xc4;" horiz-adv-x="1444" d="M-115 0l17 86h39q55 0 92 28.5t98 131.5l713 1216h160l194 -1267q10 -64 35 -86.5t86 -22.5h27l-17 -86h-557l16 86h48q147 0 147 104q0 42 -4 70l-33 229h-538l-123 -215q-39 -68 -39 -114q0 -74 114 -74h48l-17 -86h-506zM469 592h463l-51 358q-31 218 -33 324 q-47 -111 -160 -305zM654 1735q0 129 110 129q103 0 103 -103q0 -129 -111 -129q-102 0 -102 103zM1043 1735q0 129 110 129q103 0 103 -103q0 -129 -111 -129q-102 0 -102 103z" />
<glyph unicode="&#xc5;" horiz-adv-x="1444" d="M-115 0l17 86h39q55 0 92 28.5t98 131.5l713 1216h160l194 -1267q10 -64 35 -86.5t86 -22.5h27l-17 -86h-557l16 86h48q147 0 147 104q0 42 -4 70l-33 229h-538l-123 -215q-39 -68 -39 -114q0 -74 114 -74h48l-17 -86h-506zM469 592h463l-51 358q-31 218 -33 324 q-47 -111 -160 -305zM668 1585q0 104 69 163.5t177 59.5t177 -59.5t69 -163.5q0 -105 -69.5 -164t-176.5 -59t-176.5 59t-69.5 164zM779 1585q0 -123 135 -123t135 123t-135 123t-135 -123z" />
<glyph unicode="&#xc6;" horiz-adv-x="1948" d="M-127 0l29 86h39q54 0 94.5 28t116.5 132l815 1118l-174 12l18 86h1159l-65 -358h-107q10 70 10 119q0 137 -145 137h-344l-117 -545h494l-21 -100h-493l-131 -613h395q172 0 231 168l33 88h107l-91 -358h-1097l16 86h27q103 0 144 35.5t54 101.5l56 266h-463l-154 -215 q-55 -77 -55 -120q0 -68 104 -68h48l-29 -86h-504zM539 592h409l162 768h-39q-97 -168 -260 -391z" />
<glyph unicode="&#xc7;" horiz-adv-x="1284" d="M106 528q0 388 242 671.5t602 283.5q179 0 279 -61.5t100 -166.5q0 -73 -55 -116t-146 -43q0 278 -204 278q-253 0 -423.5 -275.5t-170.5 -602.5q0 -383 364 -383q237 0 379 186q27 -19 27 -68q0 -98 -114 -174.5t-314 -76.5q-267 0 -416.5 143t-149.5 405zM334 -469 l22 104q70 -16 137 -16q152 0 152 125q0 102 -131 115l78 159h96l-39 -88q74 -10 119 -58t45 -112q0 -119 -86.5 -185.5t-239.5 -66.5q-79 0 -153 23z" />
<glyph unicode="&#xc8;" horiz-adv-x="1276" d="M-43 0l16 86h27q104 0 144.5 36.5t54.5 100.5l213 1006q6 28 6 49q0 48 -28 73t-116 25h-26l18 86h1032l-65 -358h-107l6 63q5 48 5 56q0 137 -146 137h-344l-117 -545h494l-20 -100h-494l-131 -613h395q173 0 232 168l32 88h107l-90 -358h-1098zM585 1886l6 21h205 q60 -155 137 -301l-6 -27h-78q-154 150 -264 307z" />
<glyph unicode="&#xc9;" horiz-adv-x="1276" d="M-43 0l16 86h27q104 0 144.5 36.5t54.5 100.5l213 1006q6 28 6 49q0 48 -28 73t-116 25h-26l18 86h1032l-65 -358h-107l6 63q5 48 5 56q0 137 -146 137h-344l-117 -545h494l-20 -100h-494l-131 -613h395q173 0 232 168l32 88h107l-90 -358h-1098zM719 1579l6 27 q117 135 219 301h219l-6 -21q-157 -183 -356 -307h-82z" />
<glyph unicode="&#xca;" horiz-adv-x="1276" d="M-43 0l16 86h27q104 0 144.5 36.5t54.5 100.5l213 1006q6 28 6 49q0 48 -28 73t-116 25h-26l18 86h1032l-65 -358h-107l6 63q5 48 5 56q0 137 -146 137h-344l-117 -545h494l-20 -100h-494l-131 -613h395q173 0 232 168l32 88h107l-90 -358h-1098zM545 1579l6 27 q186 183 270 301h195q29 -117 139 -301l-6 -27h-72q-95 65 -182 184q-150 -127 -262 -184h-88z" />
<glyph unicode="&#xcb;" horiz-adv-x="1276" d="M-43 0l16 86h27q104 0 144.5 36.5t54.5 100.5l213 1006q6 28 6 49q0 48 -28 73t-116 25h-26l18 86h1032l-65 -358h-107l6 63q5 48 5 56q0 137 -146 137h-344l-117 -545h494l-20 -100h-494l-131 -613h395q173 0 232 168l32 88h107l-90 -358h-1098zM541 1735q0 129 110 129 q103 0 103 -103q0 -129 -111 -129q-102 0 -102 103zM930 1735q0 129 110 129q103 0 103 -103q0 -129 -111 -129q-102 0 -102 103z" />
<glyph unicode="&#xcc;" horiz-adv-x="752" d="M-43 0l16 86h27q170 0 201 147l213 1004q8 38 8 57q0 82 -148 82h-26l18 86h596l-18 -86h-27q-98 0 -141 -37t-58 -110l-212 -1004q-9 -43 -9 -57q0 -82 148 -82h26l-18 -86h-596zM343 1886l6 21h205q60 -155 137 -301l-6 -27h-78q-154 150 -264 307z" />
<glyph unicode="&#xcd;" horiz-adv-x="752" d="M-43 0l16 86h27q170 0 201 147l213 1004q8 38 8 57q0 82 -148 82h-26l18 86h596l-18 -86h-27q-98 0 -141 -37t-58 -110l-212 -1004q-9 -43 -9 -57q0 -82 148 -82h26l-18 -86h-596zM470 1579l6 27q117 135 219 301h219l-6 -21q-157 -183 -356 -307h-82z" />
<glyph unicode="&#xce;" horiz-adv-x="752" d="M-43 0l16 86h27q170 0 201 147l213 1004q8 38 8 57q0 82 -148 82h-26l18 86h596l-18 -86h-27q-98 0 -141 -37t-58 -110l-212 -1004q-9 -43 -9 -57q0 -82 148 -82h26l-18 -86h-596zM274 1579l6 27q186 183 270 301h195q29 -117 139 -301l-6 -27h-72q-95 65 -182 184 q-150 -127 -262 -184h-88z" />
<glyph unicode="&#xcf;" horiz-adv-x="752" d="M-43 0l16 86h27q170 0 201 147l213 1004q8 38 8 57q0 82 -148 82h-26l18 86h596l-18 -86h-27q-98 0 -141 -37t-58 -110l-212 -1004q-9 -43 -9 -57q0 -82 148 -82h26l-18 -86h-596zM302 1735q0 129 110 129q103 0 103 -103q0 -129 -111 -129q-102 0 -102 103zM691 1735 q0 129 110 129q103 0 103 -103q0 -129 -111 -129q-102 0 -102 103z" />
<glyph unicode="&#xd0;" horiz-adv-x="1485" d="M-43 0l16 86h27q97 0 141.5 37t59.5 110l102 482h-199l23 100h197l90 422q3 14 5.5 29.5t2.5 27.5q0 42 -32.5 62t-115.5 20h-26l18 86h574q279 0 430 -144t151 -413q0 -255 -101 -464.5t-287 -325t-431 -115.5h-645zM379 104h178q294 0 467.5 226.5t173.5 597.5 q0 211 -99.5 321.5t-289.5 110.5h-162l-117 -545h347l-23 -100h-346z" />
<glyph unicode="&#xd1;" horiz-adv-x="1563" d="M-41 0l18 86h27q96 0 138 37.5t59 109.5l213 1004q8 38 8 57q0 82 -148 82h-26l18 86h373l496 -1130l192 905q8 38 8 57q0 82 -147 82h-27l19 86h514l-19 -86h-26q-98 0 -140.5 -37.5t-58.5 -109.5l-260 -1229h-133l-527 1200l-206 -975q-9 -43 -9 -57q0 -82 148 -82h26 l-18 -86h-512zM663 1600q72 241 268 241q82 0 169 -64q87 -65 124 -65q89 0 123 109h92q-72 -242 -266 -242q-81 0 -169 65q-89 64 -126 64q-88 0 -123 -108h-92z" />
<glyph unicode="&#xd2;" horiz-adv-x="1520" d="M106 545q0 352 230 646t590 294q238 0 384 -148t146 -415q0 -351 -228 -648t-585 -297q-243 0 -390 153.5t-147 414.5zM330 487q0 -192 87 -294.5t238 -102.5q255 0 415.5 282.5t160.5 604.5q0 191 -84.5 294t-237.5 103q-256 0 -417.5 -283.5t-161.5 -603.5zM758 1886 l6 21h205q60 -155 137 -301l-6 -27h-78q-154 150 -264 307z" />
<glyph unicode="&#xd3;" horiz-adv-x="1520" d="M106 545q0 352 230 646t590 294q238 0 384 -148t146 -415q0 -351 -228 -648t-585 -297q-243 0 -390 153.5t-147 414.5zM330 487q0 -192 87 -294.5t238 -102.5q255 0 415.5 282.5t160.5 604.5q0 191 -84.5 294t-237.5 103q-256 0 -417.5 -283.5t-161.5 -603.5zM821 1579 l6 27q117 135 219 301h219l-6 -21q-157 -183 -356 -307h-82z" />
<glyph unicode="&#xd4;" horiz-adv-x="1520" d="M106 545q0 352 230 646t590 294q238 0 384 -148t146 -415q0 -351 -228 -648t-585 -297q-243 0 -390 153.5t-147 414.5zM330 487q0 -192 87 -294.5t238 -102.5q255 0 415.5 282.5t160.5 604.5q0 191 -84.5 294t-237.5 103q-256 0 -417.5 -283.5t-161.5 -603.5zM633 1579 l6 27q186 183 270 301h195q29 -117 139 -301l-6 -27h-72q-95 65 -182 184q-150 -127 -262 -184h-88z" />
<glyph unicode="&#xd5;" horiz-adv-x="1520" d="M106 545q0 352 230 646t590 294q238 0 384 -148t146 -415q0 -351 -228 -648t-585 -297q-243 0 -390 153.5t-147 414.5zM330 487q0 -192 87 -294.5t238 -102.5q255 0 415.5 282.5t160.5 604.5q0 191 -84.5 294t-237.5 103q-256 0 -417.5 -283.5t-161.5 -603.5zM588 1600 q72 241 268 241q82 0 169 -64q87 -65 124 -65q89 0 123 109h92q-72 -242 -266 -242q-81 0 -169 65q-89 64 -126 64q-88 0 -123 -108h-92z" />
<glyph unicode="&#xd6;" horiz-adv-x="1520" d="M106 545q0 352 230 646t590 294q238 0 384 -148t146 -415q0 -351 -228 -648t-585 -297q-243 0 -390 153.5t-147 414.5zM330 487q0 -192 87 -294.5t238 -102.5q255 0 415.5 282.5t160.5 604.5q0 191 -84.5 294t-237.5 103q-256 0 -417.5 -283.5t-161.5 -603.5zM678 1735 q0 129 110 129q103 0 103 -103q0 -129 -111 -129q-102 0 -102 103zM1067 1735q0 129 110 129q103 0 103 -103q0 -129 -111 -129q-102 0 -102 103z" />
<glyph unicode="&#xd7;" d="M145 395l340 340l-340 338l86 86l340 -340l340 342l86 -88l-340 -340l340 -340l-86 -86l-340 340l-340 -340z" />
<glyph unicode="&#xd8;" horiz-adv-x="1520" d="M106 545q0 352 230 646t590 294q165 0 291 -76l106 137h119l-150 -194q164 -152 164 -430q0 -351 -228 -648t-585 -297q-165 0 -289 74l-96 -133h-121l137 191q-168 156 -168 436zM330 487q0 -139 49 -237l751 1038q-84 86 -221 86q-256 0 -417.5 -283.5t-161.5 -603.5z M438 168q86 -78 217 -78q255 0 415.5 282.5t160.5 604.5q0 129 -43 227z" />
<glyph unicode="&#xd9;" horiz-adv-x="1495" d="M197 334q0 83 22 182l152 721q8 38 8 57q0 82 -148 82h-26l18 86h596l-16 -86h-27q-96 0 -140 -36.5t-61 -110.5l-153 -723q-25 -118 -25 -191q0 -213 295 -213q166 0 263 74t135 246l174 815q8 37 8 57q0 82 -148 82h-26l18 86h514l-16 -86h-27q-96 0 -140 -36.5 t-61 -110.5l-172 -811q-93 -438 -552 -438q-226 0 -345.5 92t-119.5 262zM717 1886l6 21h205q60 -155 137 -301l-6 -27h-78q-154 150 -264 307z" />
<glyph unicode="&#xda;" horiz-adv-x="1495" d="M197 334q0 83 22 182l152 721q8 38 8 57q0 82 -148 82h-26l18 86h596l-16 -86h-27q-96 0 -140 -36.5t-61 -110.5l-153 -723q-25 -118 -25 -191q0 -213 295 -213q166 0 263 74t135 246l174 815q8 37 8 57q0 82 -148 82h-26l18 86h514l-16 -86h-27q-96 0 -140 -36.5 t-61 -110.5l-172 -811q-93 -438 -552 -438q-226 0 -345.5 92t-119.5 262zM858 1579l6 27q117 135 219 301h219l-6 -21q-157 -183 -356 -307h-82z" />
<glyph unicode="&#xdb;" horiz-adv-x="1495" d="M197 334q0 83 22 182l152 721q8 38 8 57q0 82 -148 82h-26l18 86h596l-16 -86h-27q-96 0 -140 -36.5t-61 -110.5l-153 -723q-25 -118 -25 -191q0 -213 295 -213q166 0 263 74t135 246l174 815q8 37 8 57q0 82 -148 82h-26l18 86h514l-16 -86h-27q-96 0 -140 -36.5 t-61 -110.5l-172 -811q-93 -438 -552 -438q-226 0 -345.5 92t-119.5 262zM674 1579l6 27q186 183 270 301h195q29 -117 139 -301l-6 -27h-72q-95 65 -182 184q-150 -127 -262 -184h-88z" />
<glyph unicode="&#xdc;" horiz-adv-x="1495" d="M197 334q0 83 22 182l152 721q8 38 8 57q0 82 -148 82h-26l18 86h596l-16 -86h-27q-96 0 -140 -36.5t-61 -110.5l-153 -723q-25 -118 -25 -191q0 -213 295 -213q166 0 263 74t135 246l174 815q8 37 8 57q0 82 -148 82h-26l18 86h514l-16 -86h-27q-96 0 -140 -36.5 t-61 -110.5l-172 -811q-93 -438 -552 -438q-226 0 -345.5 92t-119.5 262zM672 1735q0 129 110 129q103 0 103 -103q0 -129 -111 -129q-102 0 -102 103zM1061 1735q0 129 110 129q103 0 103 -103q0 -129 -111 -129q-102 0 -102 103z" />
<glyph unicode="&#xdd;" horiz-adv-x="1280" d="M158 1376l18 86h553l-18 -86h-103q-84 0 -84 -55q0 -40 27 -119l92 -274q49 -146 55 -246q20 38 154 215l195 260q75 100 75 166q0 53 -98 53h-76l19 86h506l-19 -86h-39q-39 0 -77.5 -31.5t-108.5 -123.5l-477 -625l-80 -371q-8 -37 -8 -57q0 -82 147 -82h47l-18 -86 h-637l18 86h47q103 0 143 35.5t54 101.5l80 377l-238 668q-23 65 -45.5 86.5t-77.5 21.5h-26zM764 1579l6 27q117 135 219 301h219l-6 -21q-157 -183 -356 -307h-82z" />
<glyph unicode="&#xde;" horiz-adv-x="1237" d="M-41 0l18 86h27q96 0 139 37t58 110l213 1004q8 38 8 57q0 82 -148 82h-26l18 86h617l-19 -86h-47q-103 0 -144 -38.5t-55 -108.5l-4 -21h121q222 0 344.5 -103t122.5 -292q0 -233 -157.5 -365.5t-469.5 -132.5h-151l-18 -90q-9 -45 -9 -57q0 -82 148 -82h47l-19 -86 h-614zM444 412h109q432 0 432 399q0 299 -299 299h-94z" />
<glyph unicode="&#xdf;" horiz-adv-x="1284" d="M-279 -475l19 94q51 -14 94 -14q102 0 159 87.5t99 289.5l217 1019h-166l21 97h166l14 61q94 408 512 408q373 0 373 -314q0 -109 -29 -247h-176q-225 0 -225 -168q0 -70 44.5 -117t125.5 -94q192 -113 192 -308q0 -162 -101.5 -250.5t-293.5 -88.5q-145 0 -228 55.5 t-83 152.5q0 60 43.5 97t109.5 37q0 -244 172 -244q91 0 146 52.5t55 141.5q0 138 -156 230q-204 126 -204 293q0 307 407 307q23 103 23 170q0 203 -201 203q-243 0 -307 -287l-258 -1204q-54 -250 -156.5 -363t-288.5 -113q-58 0 -119 17z" />
<glyph unicode="&#xe0;" horiz-adv-x="1186" d="M88 354q0 282 175.5 523t434.5 241q139 0 240 -74l90 52h66l-140 -656q-30 -141 -30 -227q0 -104 67 -104q58 0 148 53l37 -60q-147 -122 -289 -122q-160 0 -160 170q0 65 21 159h-13q-147 -329 -383 -329q-125 0 -194.5 98.5t-69.5 275.5zM297 346q0 -237 129 -237 q102 0 214 151t148 330l76 362q-47 74 -155 74q-175 0 -293.5 -222.5t-118.5 -457.5zM441 1548l6 21h205q60 -155 137 -301l-6 -27h-78q-154 150 -264 307z" />
<glyph unicode="&#xe1;" horiz-adv-x="1186" d="M88 354q0 282 175.5 523t434.5 241q139 0 240 -74l90 52h66l-140 -656q-30 -141 -30 -227q0 -104 67 -104q58 0 148 53l37 -60q-147 -122 -289 -122q-160 0 -160 170q0 65 21 159h-13q-147 -329 -383 -329q-125 0 -194.5 98.5t-69.5 275.5zM297 346q0 -237 129 -237 q102 0 214 151t148 330l76 362q-47 74 -155 74q-175 0 -293.5 -222.5t-118.5 -457.5zM631 1241l6 27q117 135 219 301h219l-6 -21q-157 -183 -356 -307h-82z" />
<glyph unicode="&#xe2;" horiz-adv-x="1186" d="M88 354q0 282 175.5 523t434.5 241q139 0 240 -74l90 52h66l-140 -656q-30 -141 -30 -227q0 -104 67 -104q58 0 148 53l37 -60q-147 -122 -289 -122q-160 0 -160 170q0 65 21 159h-13q-147 -329 -383 -329q-125 0 -194.5 98.5t-69.5 275.5zM297 346q0 -237 129 -237 q102 0 214 151t148 330l76 362q-47 74 -155 74q-175 0 -293.5 -222.5t-118.5 -457.5zM404 1241l6 27q186 183 270 301h195q29 -117 139 -301l-6 -27h-72q-95 65 -182 184q-150 -127 -262 -184h-88z" />
<glyph unicode="&#xe3;" horiz-adv-x="1186" d="M88 354q0 282 175.5 523t434.5 241q139 0 240 -74l90 52h66l-140 -656q-30 -141 -30 -227q0 -104 67 -104q58 0 148 53l37 -60q-147 -122 -289 -122q-160 0 -160 170q0 65 21 159h-13q-147 -329 -383 -329q-125 0 -194.5 98.5t-69.5 275.5zM297 346q0 -237 129 -237 q102 0 214 151t148 330l76 362q-47 74 -155 74q-175 0 -293.5 -222.5t-118.5 -457.5zM341 1262q72 241 268 241q82 0 169 -64q87 -65 124 -65q89 0 123 109h92q-72 -242 -266 -242q-81 0 -169 65q-89 64 -126 64q-88 0 -123 -108h-92z" />
<glyph unicode="&#xe4;" horiz-adv-x="1186" d="M88 354q0 282 175.5 523t434.5 241q139 0 240 -74l90 52h66l-140 -656q-30 -141 -30 -227q0 -104 67 -104q58 0 148 53l37 -60q-147 -122 -289 -122q-160 0 -160 170q0 65 21 159h-13q-147 -329 -383 -329q-125 0 -194.5 98.5t-69.5 275.5zM297 346q0 -237 129 -237 q102 0 214 151t148 330l76 362q-47 74 -155 74q-175 0 -293.5 -222.5t-118.5 -457.5zM403 1397q0 129 110 129q103 0 103 -103q0 -129 -111 -129q-102 0 -102 103zM792 1397q0 129 110 129q103 0 103 -103q0 -129 -111 -129q-102 0 -102 103z" />
<glyph unicode="&#xe5;" horiz-adv-x="1186" d="M88 354q0 282 175.5 523t434.5 241q139 0 240 -74l90 52h66l-140 -656q-30 -141 -30 -227q0 -104 67 -104q58 0 148 53l37 -60q-147 -122 -289 -122q-160 0 -160 170q0 65 21 159h-13q-147 -329 -383 -329q-125 0 -194.5 98.5t-69.5 275.5zM297 346q0 -237 129 -237 q102 0 214 151t148 330l76 362q-47 74 -155 74q-175 0 -293.5 -222.5t-118.5 -457.5zM491 1444q0 104 69 163.5t177 59.5t177 -59.5t69 -163.5q0 -105 -69.5 -164t-176.5 -59t-176.5 59t-69.5 164zM602 1444q0 -123 135 -123t135 123t-135 123t-135 -123z" />
<glyph unicode="&#xe6;" horiz-adv-x="1665" d="M88 387q0 278 164.5 504.5t433.5 226.5q161 0 313 -127q153 127 355 127q130 0 201 -62t71 -173q0 -166 -172.5 -289t-421.5 -123h-35q-18 0 -36 2q-5 -25 -5 -86q0 -278 226 -278q171 0 295 147q20 -14 20 -51q0 -84 -96.5 -154.5t-257.5 -70.5q-141 0 -243 75t-136 219 q-116 -294 -367 -294q-140 0 -224.5 108t-84.5 299zM297 365q0 -122 45.5 -189t126.5 -67q102 0 177 99t104 267q38 233 155 418q-97 133 -209 133q-173 0 -286 -217t-113 -444zM979 567h20q181 0 298.5 88t117.5 228q0 137 -119 137q-100 0 -186.5 -127.5t-130.5 -325.5z " />
<glyph unicode="&#xe7;" horiz-adv-x="997" d="M88 403q0 268 173 491.5t437 223.5q141 0 220 -56t79 -140q0 -62 -49.5 -103t-132.5 -41q0 109 -42 175.5t-116 66.5q-143 0 -249.5 -214t-106.5 -419q0 -278 225 -278q179 0 295 147q21 -13 21 -51q0 -82 -96.5 -153.5t-258.5 -71.5q-179 0 -289 113t-110 310zM172 -469 l22 104q70 -16 137 -16q152 0 152 125q0 102 -131 115l78 159h96l-39 -88q74 -10 119 -58t45 -112q0 -119 -86.5 -185.5t-239.5 -66.5q-79 0 -153 23z" />
<glyph unicode="&#xe8;" horiz-adv-x="1010" d="M88 403q0 268 173 491.5t437 223.5q130 0 201.5 -62t71.5 -173q0 -166 -172.5 -289t-421.5 -123h-35q-18 0 -37 2q-4 -28 -4 -86q0 -278 225 -278q175 0 295 147q21 -13 21 -51q0 -82 -96.5 -153.5t-258.5 -71.5q-179 0 -289 113t-110 310zM324 567h20q181 0 298.5 88 t117.5 228q0 137 -119 137q-99 0 -185 -124.5t-132 -328.5zM457 1548l6 21h205q60 -155 137 -301l-6 -27h-78q-154 150 -264 307z" />
<glyph unicode="&#xe9;" horiz-adv-x="1010" d="M88 403q0 268 173 491.5t437 223.5q130 0 201.5 -62t71.5 -173q0 -166 -172.5 -289t-421.5 -123h-35q-18 0 -37 2q-4 -28 -4 -86q0 -278 225 -278q175 0 295 147q21 -13 21 -51q0 -82 -96.5 -153.5t-258.5 -71.5q-179 0 -289 113t-110 310zM324 567h20q181 0 298.5 88 t117.5 228q0 137 -119 137q-99 0 -185 -124.5t-132 -328.5zM608 1241l6 27q117 135 219 301h219l-6 -21q-157 -183 -356 -307h-82z" />
<glyph unicode="&#xea;" horiz-adv-x="1010" d="M88 403q0 268 173 491.5t437 223.5q130 0 201.5 -62t71.5 -173q0 -166 -172.5 -289t-421.5 -123h-35q-18 0 -37 2q-4 -28 -4 -86q0 -278 225 -278q175 0 295 147q21 -13 21 -51q0 -82 -96.5 -153.5t-258.5 -71.5q-179 0 -289 113t-110 310zM324 567h20q181 0 298.5 88 t117.5 228q0 137 -119 137q-99 0 -185 -124.5t-132 -328.5zM381 1241l6 27q186 183 270 301h195q29 -117 139 -301l-6 -27h-72q-95 65 -182 184q-150 -127 -262 -184h-88z" />
<glyph unicode="&#xeb;" horiz-adv-x="1010" d="M88 403q0 268 173 491.5t437 223.5q130 0 201.5 -62t71.5 -173q0 -166 -172.5 -289t-421.5 -123h-35q-18 0 -37 2q-4 -28 -4 -86q0 -278 225 -278q175 0 295 147q21 -13 21 -51q0 -82 -96.5 -153.5t-258.5 -71.5q-179 0 -289 113t-110 310zM324 567h20q181 0 298.5 88 t117.5 228q0 137 -119 137q-99 0 -185 -124.5t-132 -328.5zM407 1397q0 129 110 129q103 0 103 -103q0 -129 -111 -129q-102 0 -102 103zM796 1397q0 129 110 129q103 0 103 -103q0 -129 -111 -129q-102 0 -102 103z" />
<glyph unicode="&#xec;" horiz-adv-x="623" d="M127 1012l18 86h367l-139 -658q-31 -147 -31 -227q0 -104 68 -104q59 0 147 53l37 -60q-142 -122 -277 -122q-76 0 -123 55t-47 139q0 92 46 322l79 376q7 33 7 54q0 86 -125 86h-27zM191 1548l6 21h205q60 -155 137 -301l-6 -27h-78q-154 150 -264 307z" />
<glyph unicode="&#xed;" horiz-adv-x="623" d="M127 1012l18 86h367l-139 -658q-31 -147 -31 -227q0 -104 68 -104q59 0 147 53l37 -60q-142 -122 -277 -122q-76 0 -123 55t-47 139q0 92 46 322l79 376q7 33 7 54q0 86 -125 86h-27zM327 1241l6 27q117 135 219 301h219l-6 -21q-157 -183 -356 -307h-82z" />
<glyph unicode="&#xee;" horiz-adv-x="623" d="M73 1241l6 27q186 183 270 301h195q29 -117 139 -301l-6 -27h-72q-95 65 -182 184q-150 -127 -262 -184h-88zM127 1012l18 86h367l-139 -658q-31 -147 -31 -227q0 -104 68 -104q59 0 147 53l37 -60q-142 -122 -277 -122q-76 0 -123 55t-47 139q0 92 46 322l79 376 q7 33 7 54q0 86 -125 86h-27z" />
<glyph unicode="&#xef;" horiz-adv-x="623" d="M106 1397q0 129 110 129q103 0 103 -103q0 -129 -111 -129q-102 0 -102 103zM127 1012l18 86h367l-139 -658q-31 -147 -31 -227q0 -104 68 -104q59 0 147 53l37 -60q-142 -122 -277 -122q-76 0 -123 55t-47 139q0 92 46 322l79 376q7 33 7 54q0 86 -125 86h-27zM495 1397 q0 129 110 129q103 0 103 -103q0 -129 -111 -129q-102 0 -102 103z" />
<glyph unicode="&#xf0;" horiz-adv-x="1176" d="M88 369q0 169 81.5 331.5t217 250t307.5 87.5q51 0 97.5 -14.5t78.5 -40.5q-18 83 -54 158t-89 133l-293 -150l25 115l198 102q-43 34 -104 64.5t-121 50.5l35 103q90 -23 172.5 -62t151.5 -90l296 154l-26 -117l-201 -103q100 -98 160.5 -259.5t60.5 -340.5 q0 -346 -159 -560t-443 -214q-179 0 -285 106t-106 296zM301 336q0 -135 52 -201.5t149 -66.5q166 0 266 184t100 412q0 140 -52 204t-146 64q-168 0 -268.5 -186.5t-100.5 -409.5z" />
<glyph unicode="&#xf1;" horiz-adv-x="1227" d="M90 0l172 823q12 57 12 92q0 97 -143 97h-16l18 86h379l-55 -258h20q166 276 373 276q219 0 219 -227q0 -65 -37 -225l-53 -242q-27 -123 -27 -215q0 -98 72 -98q59 0 131 47l37 -60q-134 -116 -250 -116q-85 0 -135.5 55t-50.5 149t39 277l47 212q30 124 30 191 q0 121 -94 121q-114 0 -233.5 -154t-153.5 -307l-110 -524h-191zM362 1262q72 241 268 241q82 0 169 -64q87 -65 124 -65q89 0 123 109h92q-72 -242 -266 -242q-81 0 -169 65q-89 64 -126 64q-88 0 -123 -108h-92z" />
<glyph unicode="&#xf2;" horiz-adv-x="1176" d="M88 403q0 276 168.5 495.5t441.5 219.5q181 0 285 -109t104 -315q0 -273 -167 -493.5t-439 -220.5q-185 0 -289 112t-104 311zM301 362q0 -282 203 -282q169 0 269.5 200.5t100.5 444.5q0 285 -200 285q-167 0 -270 -201t-103 -447zM470 1548l6 21h205q60 -155 137 -301 l-6 -27h-78q-154 150 -264 307z" />
<glyph unicode="&#xf3;" horiz-adv-x="1176" d="M88 403q0 276 168.5 495.5t441.5 219.5q181 0 285 -109t104 -315q0 -273 -167 -493.5t-439 -220.5q-185 0 -289 112t-104 311zM301 362q0 -282 203 -282q169 0 269.5 200.5t100.5 444.5q0 285 -200 285q-167 0 -270 -201t-103 -447zM623 1241l6 27q117 135 219 301h219 l-6 -21q-157 -183 -356 -307h-82z" />
<glyph unicode="&#xf4;" horiz-adv-x="1176" d="M88 403q0 276 168.5 495.5t441.5 219.5q181 0 285 -109t104 -315q0 -273 -167 -493.5t-439 -220.5q-185 0 -289 112t-104 311zM301 362q0 -282 203 -282q169 0 269.5 200.5t100.5 444.5q0 285 -200 285q-167 0 -270 -201t-103 -447zM393 1241l6 27q186 183 270 301h195 q29 -117 139 -301l-6 -27h-72q-95 65 -182 184q-150 -127 -262 -184h-88z" />
<glyph unicode="&#xf5;" horiz-adv-x="1176" d="M88 403q0 276 168.5 495.5t441.5 219.5q181 0 285 -109t104 -315q0 -273 -167 -493.5t-439 -220.5q-185 0 -289 112t-104 311zM301 362q0 -282 203 -282q169 0 269.5 200.5t100.5 444.5q0 285 -200 285q-167 0 -270 -201t-103 -447zM350 1262q72 241 268 241 q82 0 169 -64q87 -65 124 -65q89 0 123 109h92q-72 -242 -266 -242q-81 0 -169 65q-89 64 -126 64q-88 0 -123 -108h-92z" />
<glyph unicode="&#xf6;" horiz-adv-x="1176" d="M88 403q0 276 168.5 495.5t441.5 219.5q181 0 285 -109t104 -315q0 -273 -167 -493.5t-439 -220.5q-185 0 -289 112t-104 311zM301 362q0 -282 203 -282q169 0 269.5 200.5t100.5 444.5q0 285 -200 285q-167 0 -270 -201t-103 -447zM416 1397q0 129 110 129 q103 0 103 -103q0 -129 -111 -129q-102 0 -102 103zM805 1397q0 129 110 129q103 0 103 -103q0 -129 -111 -129q-102 0 -102 103z" />
<glyph unicode="&#xf7;" d="M150 672v121h878v-121h-878zM485 344q0 113 105 113q104 0 104 -113t-104 -113q-105 0 -105 113zM485 1120q0 113 105 113q104 0 104 -113q0 -112 -104 -112q-105 0 -105 112z" />
<glyph unicode="&#xf8;" horiz-adv-x="1176" d="M10 -82l162 195q-84 110 -84 290q0 276 168.5 495.5t441.5 219.5q149 0 244 -74l115 136h119l-166 -203q77 -106 77 -283q0 -275 -167 -497t-439 -222q-141 0 -243 72l-107 -129h-121zM301 362q0 -65 4 -88l533 644q-49 92 -164 92q-167 0 -270 -201t-103 -447zM338 168 q46 -92 166 -92q168 0 269 201.5t101 447.5q0 44 -6 84z" />
<glyph unicode="&#xf9;" horiz-adv-x="1227" d="M117 1012l18 86h381l-135 -613q-41 -186 -41 -247q0 -125 100 -125q105 0 226.5 151.5t158.5 323.5l107 510h198l-141 -658q-31 -145 -31 -227q0 -104 68 -104q58 0 131 45l37 -60q-130 -114 -260 -114q-77 0 -124.5 55t-47.5 139q0 53 10 121h-16q-111 -183 -198.5 -248 t-197.5 -65q-219 0 -219 227q0 65 37 225l80 359q18 81 18 122q0 97 -143 97h-16zM486 1548l6 21h205q60 -155 137 -301l-6 -27h-78q-154 150 -264 307z" />
<glyph unicode="&#xfa;" horiz-adv-x="1227" d="M117 1012l18 86h381l-135 -613q-41 -186 -41 -247q0 -125 100 -125q105 0 226.5 151.5t158.5 323.5l107 510h198l-141 -658q-31 -145 -31 -227q0 -104 68 -104q58 0 131 45l37 -60q-130 -114 -260 -114q-77 0 -124.5 55t-47.5 139q0 53 10 121h-16q-111 -183 -198.5 -248 t-197.5 -65q-219 0 -219 227q0 65 37 225l80 359q18 81 18 122q0 97 -143 97h-16zM641 1241l6 27q117 135 219 301h219l-6 -21q-157 -183 -356 -307h-82z" />
<glyph unicode="&#xfb;" horiz-adv-x="1227" d="M117 1012l18 86h381l-135 -613q-41 -186 -41 -247q0 -125 100 -125q105 0 226.5 151.5t158.5 323.5l107 510h198l-141 -658q-31 -145 -31 -227q0 -104 68 -104q58 0 131 45l37 -60q-130 -114 -260 -114q-77 0 -124.5 55t-47.5 139q0 53 10 121h-16q-111 -183 -198.5 -248 t-197.5 -65q-219 0 -219 227q0 65 37 225l80 359q18 81 18 122q0 97 -143 97h-16zM428 1241l6 27q186 183 270 301h195q29 -117 139 -301l-6 -27h-72q-95 65 -182 184q-150 -127 -262 -184h-88z" />
<glyph unicode="&#xfc;" horiz-adv-x="1227" d="M117 1012l18 86h381l-135 -613q-41 -186 -41 -247q0 -125 100 -125q105 0 226.5 151.5t158.5 323.5l107 510h198l-141 -658q-31 -145 -31 -227q0 -104 68 -104q58 0 131 45l37 -60q-130 -114 -260 -114q-77 0 -124.5 55t-47.5 139q0 53 10 121h-16q-111 -183 -198.5 -248 t-197.5 -65q-219 0 -219 227q0 65 37 225l80 359q18 81 18 122q0 97 -143 97h-16zM469 1397q0 129 110 129q103 0 103 -103q0 -129 -111 -129q-102 0 -102 103zM858 1397q0 129 110 129q103 0 103 -103q0 -129 -111 -129q-102 0 -102 103z" />
<glyph unicode="&#xfd;" horiz-adv-x="1081" d="M-332 -455l31 103q72 -23 160 -23q293 0 575 373l-270 905q-18 60 -49 84.5t-92 24.5h-21l16 86h299l160 -553q74 -257 86 -371h6q277 421 277 680q0 111 -101 111q0 69 40 110t94 41q139 0 139 -172q0 -247 -276 -694.5t-442.5 -594.5t-438.5 -147q-108 0 -193 37z M529 1241l6 27q117 135 219 301h219l-6 -21q-157 -183 -356 -307h-82z" />
<glyph unicode="&#xfe;" horiz-adv-x="1151" d="M-49 -492l373 1758q18 85 18 108q0 96 -143 96h-17l19 86h377l-105 -491q-17 -79 -61 -240h12q148 293 375 293q125 0 194.5 -95t69.5 -275q0 -275 -173 -521.5t-439 -246.5q-120 0 -203 47q-9 -78 -15 -99l-31 -151q-14 -58 -14 -94q0 -89 144 -89h26l-18 -86h-389z M281 145q65 -73 163 -73q171 0 290.5 223t119.5 455q0 113 -35.5 176t-97.5 63q-107 0 -216 -150.5t-140 -303.5z" />
<glyph unicode="&#xff;" horiz-adv-x="1081" d="M-332 -455l31 103q72 -23 160 -23q293 0 575 373l-270 905q-18 60 -49 84.5t-92 24.5h-21l16 86h299l160 -553q74 -257 86 -371h6q277 421 277 680q0 111 -101 111q0 69 40 110t94 41q139 0 139 -172q0 -247 -276 -694.5t-442.5 -594.5t-438.5 -147q-108 0 -193 37z M311 1397q0 129 110 129q103 0 103 -103q0 -129 -111 -129q-102 0 -102 103zM700 1397q0 129 110 129q103 0 103 -103q0 -129 -111 -129q-102 0 -102 103z" />
<glyph unicode="&#x152;" horiz-adv-x="1970" d="M106 545q0 352 230 646t590 294q102 0 217 -23h850l-66 -358h-106q10 70 10 119q0 133 -145 137h-345l-116 -545h493l-20 -100h-494l-131 -613h395q173 0 232 168l33 88h106l-90 -358h-881l-69 -12q-80 -11 -156 -11q-243 0 -390 153.5t-147 414.5zM330 487 q0 -192 87 -294.5t238 -102.5q135 0 217 35l256 1208q-113 41 -219 41q-256 0 -417.5 -283.5t-161.5 -603.5z" />
<glyph unicode="&#x153;" horiz-adv-x="1767" d="M88 403q0 277 168.5 501t441.5 224q248 0 344 -204q173 194 414 194q130 0 201.5 -62t71.5 -173q0 -92 -61 -181t-170.5 -145.5t-194 -70t-240.5 -13.5q-6 -46 -6 -86q0 -278 227 -278q175 0 295 147q20 -14 20 -51q0 -84 -96.5 -154.5t-257.5 -70.5q-239 0 -344 186 q-169 -199 -420 -199q-182 0 -287.5 117t-105.5 319zM301 362q0 -294 203 -294q168 0 269 205t101 452q0 295 -200 295q-167 0 -270 -205.5t-103 -452.5zM1081 567h21q181 0 298.5 89t117.5 227q0 137 -119 137q-100 0 -186.5 -126.5t-131.5 -326.5z" />
<glyph unicode="&#x178;" horiz-adv-x="1280" d="M158 1376l18 86h553l-18 -86h-103q-84 0 -84 -55q0 -40 27 -119l92 -274q49 -146 55 -246q20 38 154 215l195 260q75 100 75 166q0 53 -98 53h-76l19 86h506l-19 -86h-39q-39 0 -77.5 -31.5t-108.5 -123.5l-477 -625l-80 -371q-8 -37 -8 -57q0 -82 147 -82h47l-18 -86 h-637l18 86h47q103 0 143 35.5t54 101.5l80 377l-238 668q-23 65 -45.5 86.5t-77.5 21.5h-26zM582 1735q0 129 110 129q103 0 103 -103q0 -129 -111 -129q-102 0 -102 103zM971 1735q0 129 110 129q103 0 103 -103q0 -129 -111 -129q-102 0 -102 103z" />
<glyph unicode="&#x2c6;" horiz-adv-x="1182" d="M375 1241l6 27q186 183 270 301h195q29 -117 139 -301l-6 -27h-72q-95 65 -182 184q-150 -127 -262 -184h-88z" />
<glyph unicode="&#x2dc;" horiz-adv-x="1182" d="M344 1262q72 241 268 241q82 0 169 -64q87 -65 124 -65q89 0 123 109h92q-72 -242 -266 -242q-81 0 -169 65q-89 64 -126 64q-88 0 -123 -108h-92z" />
<glyph unicode="&#x2000;" horiz-adv-x="953" />
<glyph unicode="&#x2001;" horiz-adv-x="1907" />
<glyph unicode="&#x2002;" horiz-adv-x="953" />
<glyph unicode="&#x2003;" horiz-adv-x="1907" />
<glyph unicode="&#x2004;" horiz-adv-x="635" />
<glyph unicode="&#x2005;" horiz-adv-x="476" />
<glyph unicode="&#x2006;" horiz-adv-x="317" />
<glyph unicode="&#x2007;" horiz-adv-x="317" />
<glyph unicode="&#x2008;" horiz-adv-x="238" />
<glyph unicode="&#x2009;" horiz-adv-x="381" />
<glyph unicode="&#x200a;" horiz-adv-x="105" />
<glyph unicode="&#x2010;" horiz-adv-x="635" d="M29 481l32 154h533l-33 -154h-532z" />
<glyph unicode="&#x2011;" horiz-adv-x="635" d="M29 481l32 154h533l-33 -154h-532z" />
<glyph unicode="&#x2012;" horiz-adv-x="635" d="M29 481l32 154h533l-33 -154h-532z" />
<glyph unicode="&#x2013;" horiz-adv-x="1024" d="M-6 489l24 121h1045l-27 -121h-1042z" />
<glyph unicode="&#x2014;" horiz-adv-x="2048" d="M-6 489l24 121h2069l-27 -121h-2066z" />
<glyph unicode="&#x2018;" horiz-adv-x="512" d="M215 1069q0 148 95 252t276 141l-8 -86q-209 -46 -209 -172q0 -36 67 -78q66 -42 66 -104q0 -55 -35 -88t-92 -33q-67 0 -113.5 46.5t-46.5 121.5z" />
<glyph unicode="&#x2019;" horiz-adv-x="512" d="M168 901l8 86q209 47 209 172q0 36 -66 78q-67 42 -67 104q0 55 35 88t92 33q69 0 114.5 -46.5t45.5 -121.5q0 -151 -96.5 -254t-274.5 -139z" />
<glyph unicode="&#x201a;" horiz-adv-x="512" d="M-57 -299l8 86q209 47 209 172q0 36 -66 78q-67 42 -67 104q0 55 35 88t92 33q69 0 114 -45.5t45 -122.5q0 -150 -95 -253.5t-275 -139.5z" />
<glyph unicode="&#x201c;" horiz-adv-x="922" d="M215 1069q0 148 95 252t276 141l-8 -86q-209 -46 -209 -172q0 -36 67 -78q66 -42 66 -104q0 -55 -35 -88t-92 -33q-67 0 -113.5 46.5t-46.5 121.5zM625 1069q0 150 95 253.5t275 139.5l-8 -86q-209 -47 -209 -172q0 -36 67 -78q66 -42 66 -104q0 -55 -34.5 -88t-92.5 -33 q-68 0 -113.5 46.5t-45.5 121.5z" />
<glyph unicode="&#x201d;" horiz-adv-x="922" d="M168 901l8 86q209 47 209 172q0 36 -66 78q-67 42 -67 104q0 55 35 88t92 33q69 0 114.5 -46.5t45.5 -121.5q0 -151 -96.5 -254t-274.5 -139zM578 901l8 86q209 47 209 172q0 36 -66 78q-67 42 -67 104q0 55 34 88t92 33q69 0 114.5 -46.5t45.5 -121.5q0 -152 -96.5 -255 t-273.5 -138z" />
<glyph unicode="&#x201e;" horiz-adv-x="922" d="M-57 -299l8 86q209 47 209 172q0 36 -66 78q-67 42 -67 104q0 55 35 88t92 33q69 0 114 -45.5t45 -122.5q0 -150 -95 -253.5t-275 -139.5zM350 -299l8 86q209 47 209 172q0 36 -66 78q-67 42 -67 104q0 55 35 88t92 33q69 0 114.5 -46.5t45.5 -121.5q0 -151 -96.5 -254 t-274.5 -139z" />
<glyph unicode="&#x2022;" horiz-adv-x="741" d="M117 729q0 297 270 297t270 -297t-270 -297t-270 297z" />
<glyph unicode="&#x2026;" horiz-adv-x="1757" d="M90 109q0 71 36.5 114t98.5 43q127 0 127 -125q0 -72 -36.5 -114.5t-98.5 -42.5q-127 0 -127 125zM672 109q0 71 36.5 114t98.5 43q127 0 127 -125q0 -73 -36.5 -115t-98.5 -42q-127 0 -127 125zM1264 109q0 71 36.5 114t98.5 43q60 0 93.5 -34t33.5 -91 q0 -73 -36.5 -115t-98.5 -42q-127 0 -127 125z" />
<glyph unicode="&#x202f;" horiz-adv-x="381" />
<glyph unicode="&#x2039;" horiz-adv-x="682" d="M125 520l14 66l389 356h103l-295 -397l129 -381h-103z" />
<glyph unicode="&#x203a;" horiz-adv-x="682" d="M51 164l299 397l-133 381h102l238 -356l-14 -66l-389 -356h-103z" />
<glyph unicode="&#x205f;" horiz-adv-x="476" />
<glyph unicode="&#x20ac;" d="M53 547l21 96h141q11 82 27 143h-140l21 97h145q178 596 637 596q141 0 224 -53t83 -138q0 -149 -180 -149q0 239 -166 239q-261 0 -401 -495h430l-21 -97h-434q-17 -63 -26 -143h350l-21 -96h-342q-4 -31 -4 -117q0 -158 65 -244t187 -86q167 0 287 123q25 -17 25 -49 q0 -67 -95 -130.5t-254 -63.5q-197 0 -305 119t-108 345q0 72 4 103h-150z" />
<glyph unicode="&#x2122;" horiz-adv-x="1710" d="M213 1276l6 186h598l6 -186h-59l-8 49q-11 70 -82 72h-94v-525q0 -63 77 -63h33v-55h-348v55h35q76 0 76 57v531h-91q-71 0 -81 -72l-9 -49h-59zM858 754v55h21q76 0 79 57v482q0 57 -79 57h-21v57h236l225 -567l231 567h232v-57h-23q-78 0 -78 -62v-471q0 -63 78 -63h23 v-55h-303v55q74 0 80 55v457l-232 -567h-72l-231 569v-451q0 -41 21 -52t61 -11v-55h-248z" />
<glyph unicode="&#xe000;" horiz-adv-x="1100" d="M0 0v1100h1100v-1100h-1100z" />
<glyph unicode="&#xfb01;" horiz-adv-x="1217" d="M-287 -475l19 94q51 -14 94 -14q99 0 156 85t102 292l215 999h-186l12 74l197 43l26 112q85 367 467 367q158 0 238 -41.5t80 -110.5q0 -133 -222 -133q0 191 -135 191q-185 0 -235 -254l-27 -131h592l-139 -658q-31 -147 -31 -227q0 -104 68 -104q59 0 147 53l37 -60 q-143 -122 -277 -122q-76 0 -123 55t-47 139q0 97 45 322l103 485h-400l-213 -997q-53 -247 -155 -361.5t-289 -114.5q-58 0 -119 17z" />
<glyph unicode="&#xfb02;" horiz-adv-x="1214" d="M-287 -475l19 94q51 -14 94 -14q99 0 156 85t102 292l215 999h-186l12 74l197 43l26 112q85 367 467 367q110 0 201 -51l143 30h45l-237 -1116q-31 -146 -31 -227q0 -104 68 -104q59 0 147 53l37 -60q-143 -122 -277 -122q-76 0 -123 55t-47 139q0 97 45 322l175 821 q7 32 -42 99t-143 67q-91 0 -146 -58t-89 -196l-27 -131h227l-22 -117h-230l-213 -997q-53 -247 -155 -361.5t-289 -114.5q-58 0 -119 17z" />
<glyph unicode="&#xfb03;" horiz-adv-x="1825" d="M-287 -475l19 94q17 -5 44 -9.5t50 -4.5q50 0 88 20.5t68.5 65.5t55 117t46.5 174l215 999h-186l12 74l197 43l10 47q45 208 143 309.5t262 101.5q65 0 110 -10t72.5 -26.5t39.5 -38t12 -45.5q0 -54 -35.5 -85.5t-108.5 -31.5q0 21 -4.5 46t-16.5 46.5t-32.5 36 t-52.5 14.5q-38 0 -65.5 -16.5t-49.5 -52t-40.5 -92t-37.5 -136.5l-14 -67h416l26 112q21 88 58.5 156t94.5 115t135 71.5t179 24.5q158 0 238 -41.5t80 -110.5q0 -68 -57.5 -100.5t-163.5 -32.5q0 39 -5.5 74t-20.5 61t-41.5 41t-68.5 15q-97 0 -153 -61.5t-82 -192.5 l-27 -131h592l-139 -658q-4 -17 -9 -47t-10 -63t-8.5 -64.5t-3.5 -52.5q0 -104 68 -104q34 0 71.5 15t75.5 38l37 -60q-22 -20 -53.5 -41.5t-68.5 -39.5t-76.5 -29.5t-77.5 -11.5q-41 0 -72.5 15.5t-53.5 42t-33 61.5t-11 75q0 31 4.5 74t11.5 88t15 87.5t14 72.5l102 485 h-399l-213 -997q-29 -137 -71 -228.5t-97.5 -146.5t-124.5 -78t-152 -23q-31 0 -64.5 5.5t-53.5 11.5l18 94q17 -5 44 -9.5t50 -4.5q50 0 88 20.5t68.5 65.5t55 117t46.5 174l215 999h-418l-213 -997q-29 -137 -71 -228.5t-97 -146.5t-124 -78t-152 -23q-31 0 -65 5.5 t-54 11.5z" />
<glyph unicode="&#xfb04;" horiz-adv-x="1823" d="M-287 -475l19 94q17 -5 44 -9.5t50 -4.5q50 0 88 20.5t68.5 65.5t55 117t46.5 174l215 999h-186l12 74l197 43l10 47q45 208 143 309.5t262 101.5q65 0 110 -10t72.5 -26.5t39.5 -38t12 -45.5q0 -54 -35.5 -85.5t-108.5 -31.5q0 21 -4.5 46t-16.5 46.5t-32.5 36 t-52.5 14.5q-38 0 -65.5 -16.5t-49.5 -52t-40.5 -92t-37.5 -136.5l-14 -67h416l26 112q21 88 58.5 156t94.5 115t135 71.5t179 24.5q25 0 53 -4t54.5 -11t51 -16.5t42.5 -19.5l143 30h45l-237 -1116q-4 -17 -9 -47t-10 -63t-8.5 -64.5t-3.5 -52.5q0 -104 68 -104 q34 0 71.5 15t75.5 38l37 -60q-22 -20 -53.5 -41.5t-68.5 -39.5t-76.5 -29.5t-77.5 -11.5q-41 0 -72.5 15.5t-53.5 42t-33 61.5t-11 75q0 31 4.5 74t11.5 88t15 87.5t14 72.5l174 821q-4 34 -19 64.5t-39 53t-56 35.5t-71 13q-48 0 -85 -15.5t-65 -47t-48.5 -79.5 t-36.5 -112l-27 -131h228l-23 -117h-229l-213 -997q-29 -137 -71 -228.5t-97.5 -146.5t-124.5 -78t-152 -23q-31 0 -64.5 5.5t-53.5 11.5l18 94q17 -5 44 -9.5t50 -4.5q50 0 88 20.5t68.5 65.5t55 117t46.5 174l215 999h-418l-213 -997q-29 -137 -71 -228.5t-97 -146.5 t-124 -78t-152 -23q-31 0 -65 5.5t-54 11.5z" />
</font>
</defs>
</svg>
