<?xml version="1.0" standalone="no"?>
<!DOCTYPE svg PUBLIC "-//W3C//DTD SVG 1.1//EN" "http://www.w3.org/Graphics/SVG/1.1/DTD/svg11.dtd" >
<svg xmlns="http://www.w3.org/2000/svg">
<metadata></metadata>
<defs>
<font id="noto_serifbold" horiz-adv-x="1145" >
<font-face units-per-em="2048" ascent="1638" descent="-410" />
<missing-glyph horiz-adv-x="532" />
<glyph horiz-adv-x="0" />
<glyph horiz-adv-x="0" />
<glyph unicode="&#xd;" horiz-adv-x="1044" />
<glyph unicode=" "  horiz-adv-x="532" />
<glyph unicode="&#x09;" horiz-adv-x="532" />
<glyph unicode="&#xa0;" horiz-adv-x="532" />
<glyph unicode="!" horiz-adv-x="782" d="M213 1462h356l-120 -995h-115zM225 147q0 47 13 78.5t35.5 50.5t53.5 27t66 8q34 0 64.5 -8t53.5 -27t36.5 -50.5t13.5 -78.5q0 -46 -13.5 -77t-36.5 -50t-53.5 -27.5t-64.5 -8.5q-35 0 -66 8.5t-53.5 27.5t-35.5 50t-13 77z" />
<glyph unicode="&#x22;" horiz-adv-x="1040" d="M137 1462h320l-92 -563h-136zM584 1462h319l-72 -563h-135z" />
<glyph unicode="#" d="M57 410v141h232l71 371h-237v143h264l72 397h147l-74 -397h213l76 397h146l-76 -397h196v-143h-223l-69 -371h227v-141h-256l-76 -410h-145l76 410h-213l-78 -410h-146l78 410h-205zM434 551h215l72 371h-215z" />
<glyph unicode="$" d="M100 375q0 45 16.5 76t43.5 50.5t61.5 28.5t71.5 9q0 -77 16.5 -137t47 -102.5t73 -68.5t94.5 -34v442l-35 14q-98 40 -163.5 81t-106 87.5t-57.5 100.5t-17 120q0 74 28 135.5t78 107.5t119.5 75.5t153.5 38.5v157h115v-155q91 -3 157 -20t109 -44.5t63.5 -63.5 t20.5 -77q0 -65 -56 -107t-169 -42q0 30 -7 65t-22 67.5t-38.5 59t-57.5 41.5v-399q6 -3 23 -9.5t28 -11.5q94 -37 161 -76t109.5 -85t62 -99.5t19.5 -118.5q0 -78 -27.5 -144.5t-79 -117.5t-126.5 -83.5t-170 -43.5v-254h-115v250q-117 3 -198 30t-131.5 68t-72.5 91 t-22 98zM385 1128q0 -27 6 -52t22 -48.5t43 -46t68 -45.5v354q-60 -11 -99.5 -51.5t-39.5 -110.5zM639 201q77 17 118.5 68t41.5 120q0 65 -40 111t-120 88v-387z" />
<glyph unicode="%" horiz-adv-x="1855" d="M70 1030q0 103 21 186.5t66 143t115 91.5t168 32q92 0 161 -32t115 -91.5t68.5 -143t22.5 -186.5t-23 -187t-68.5 -144t-115 -93t-162.5 -33q-97 0 -167 33t-114.5 93t-65.5 144t-21 187zM301 1030q0 -84 7.5 -149.5t23.5 -111t42.5 -69.5t63.5 -24q39 0 64.5 24 t41.5 69.5t22.5 111t6.5 149.5q0 82 -6.5 146.5t-22 109.5t-41 68.5t-63.5 23.5t-64.5 -23.5t-43 -68.5t-24 -109.5t-7.5 -146.5zM492 0l706 1462h158l-705 -1462h-159zM1049 436q0 103 21 186.5t66 143t115 91.5t168 32q92 0 161 -32t115 -91.5t68.5 -143t22.5 -186.5 t-23 -187t-68.5 -144t-115 -92.5t-162.5 -32.5q-97 0 -167 32.5t-114.5 92.5t-65.5 144t-21 187zM1280 436q0 -84 7.5 -149.5t23.5 -111t42.5 -69.5t63.5 -24q39 0 64.5 24t41.5 69.5t22.5 111t6.5 149.5q0 82 -6.5 146.5t-22 109.5t-41 68.5t-63.5 23.5t-64.5 -23.5 t-43 -68.5t-24 -109.5t-7.5 -146.5z" />
<glyph unicode="&#x26;" horiz-adv-x="1640" d="M96 416q0 90 28.5 153.5t76.5 110t111.5 79t133.5 60.5q-40 48 -69.5 91.5t-48.5 86.5t-28 88t-9 97q0 68 26 123t77.5 95t128.5 61.5t179 21.5q99 0 172.5 -23t122 -63t73 -93t24.5 -112q0 -62 -19 -112t-57.5 -92.5t-97 -79.5t-138.5 -74q5 -8 15 -15l290 -305 q13 71 17 140.5t4 127.5v90h448v-108h-32q-34 0 -66.5 -4t-60.5 -18.5t-49.5 -42t-34.5 -74.5q-16 -57 -37.5 -121.5t-52.5 -130.5l204 -213q29 -31 71 -41t97 -10h19v-109h-406l-141 150q-38 -38 -84.5 -69t-102.5 -53.5t-121.5 -35t-142.5 -12.5q-126 0 -223 29.5 t-163 85.5t-100 137t-34 184zM397 406q0 -61 19.5 -113.5t54.5 -91.5t85.5 -61.5t111.5 -22.5q109 0 184 35.5t125 95.5l-438 467q-43 -31 -70.5 -65.5t-43.5 -73t-22 -81t-6 -89.5zM569 1188q0 -35 8 -67t23.5 -63.5t39.5 -63.5t56 -68q43 24 72 51t46 58.5t24.5 69.5 t7.5 85q0 36 -6.5 67t-22.5 54t-44 36t-71 13q-34 0 -59.5 -13t-41.5 -36t-24 -54.5t-8 -68.5z" />
<glyph unicode="'" horiz-adv-x="594" d="M137 1462h320l-92 -563h-136z" />
<glyph unicode="(" horiz-adv-x="819" d="M117 651q0 165 35.5 305.5t112 256.5t197.5 208t292 160v-129q-95 -63 -155 -150.5t-94 -191.5t-46.5 -220.5t-12.5 -238.5t12.5 -239.5t46.5 -222t94 -192.5t155 -151v-131q-171 69 -292 161.5t-197.5 209.5t-112 258t-35.5 307z" />
<glyph unicode=")" horiz-adv-x="819" d="M66 -154q95 63 155 151t93.5 192.5t46 222t12.5 239.5t-12.5 238.5t-46 220.5t-93.5 191.5t-155 150.5v129q171 -68 292 -160t197.5 -208t111.5 -256.5t35 -305.5q0 -166 -35 -307t-111.5 -258t-197.5 -209.5t-292 -161.5v131z" />
<glyph unicode="*" horiz-adv-x="1028" d="M72 1071l319 84l-319 82l92 207l305 -221l-68 333h230l-74 -329l307 213l92 -205l-319 -80l319 -82l-92 -203l-307 213l72 -331h-228l66 333l-303 -217z" />
<glyph unicode="+" d="M133 659v146h365v366h147v-366h367v-146h-367v-366h-147v366h-365z" />
<glyph unicode="," horiz-adv-x="602" d="M92 -209q45 16 78.5 32t56 34.5t34 41t11.5 52.5q0 19 -11 31.5t-27.5 23.5t-36 22.5t-36 29.5t-27.5 44.5t-11 67.5q0 69 42 105t105 36q87 0 138 -60t51 -165q0 -65 -20 -126t-64 -113t-113.5 -93.5t-169.5 -68.5v106z" />
<glyph unicode="-" horiz-adv-x="635" d="M51 451v215h533v-215h-533z" />
<glyph unicode="." horiz-adv-x="602" d="M133 147q0 47 13 78.5t35.5 50.5t53.5 27t66 8q34 0 64.5 -8t53.5 -27t36.5 -50.5t13.5 -78.5q0 -46 -13.5 -77t-36.5 -50t-53.5 -27.5t-64.5 -8.5q-35 0 -66 8.5t-53.5 27.5t-35.5 50t-13 77z" />
<glyph unicode="/" horiz-adv-x="590" d="M0 -248l446 1804h144l-443 -1806z" />
<glyph unicode="0" d="M70 735q0 170 26 308t85.5 236t156 151t237.5 53q133 0 228 -53t155.5 -151t88.5 -236.5t28 -309.5q0 -169 -28 -308t-89 -238t-156 -153t-229 -54q-140 0 -236 54t-155.5 153t-85.5 238.5t-26 309.5zM387 733q0 -147 8 -262t28.5 -194.5t56.5 -121.5t93 -42t93 42 t56.5 121.5t28 194.5t7.5 262t-7.5 261.5t-27.5 193.5t-56 120.5t-92 41.5q-57 0 -93.5 -41.5t-57.5 -120.5t-29 -193.5t-8 -261.5z" />
<glyph unicode="1" d="M86 1206q31 8 65 19.5t72.5 30t82.5 45t95 63.5l144 106h229v-1228q0 -32 4.5 -57t16 -42t32 -25.5t52.5 -8.5h165v-109h-845v109h168q26 0 45 6.5t32 21.5t19 40.5t6 64.5v1026q-39 -48 -73.5 -87t-66.5 -67t-62.5 -43.5t-61.5 -15.5q-25 0 -46.5 10.5t-37.5 30.5 t-25.5 48t-9.5 62z" />
<glyph unicode="2" d="M72 0v211l303 309q95 97 156 175t96 149t49 140.5t14 148.5q0 117 -42.5 171t-117.5 54q-104 0 -146 -89.5t-42 -264.5q-58 0 -106.5 11t-83 35t-53.5 62.5t-19 93.5q0 56 28.5 106t84.5 88t140.5 60.5t196.5 22.5q115 0 202.5 -23.5t147 -67.5t89.5 -107t30 -142 q0 -48 -10.5 -93t-35 -93t-64.5 -101.5t-99 -118t-137.5 -142.5t-181.5 -175l-205 -195h477q63 0 107.5 36.5t62.5 105.5l17 63h121l-11 -430h-968z" />
<glyph unicode="3" d="M57 225q0 39 14 69t38 50.5t55.5 30.5t66.5 10q0 -65 18.5 -114t51.5 -82t79.5 -49.5t102.5 -16.5q50 0 95.5 14t80.5 48t55.5 92.5t20.5 146.5q0 59 -20.5 108t-61 84.5t-99.5 55.5t-136 20h-127v127h135q66 0 115 21.5t81 61.5t48 95.5t16 122.5q0 112 -43 175t-127 63 q-55 0 -89.5 -27t-53.5 -72t-26 -102t-7 -117q-128 0 -197 44.5t-69 138.5q0 54 28.5 101.5t85.5 83t141.5 55.5t196.5 20q109 0 196.5 -22t149 -65t94.5 -105t33 -142q0 -69 -24 -127t-66 -104t-99 -80.5t-124 -57.5q62 -11 126.5 -35.5t117.5 -66.5t87 -105t34 -151 q0 -125 -46.5 -210t-124 -136.5t-177 -73.5t-205.5 -22q-116 0 -199.5 20t-137 54t-79 78.5t-25.5 92.5z" />
<glyph unicode="4" d="M27 381v125l581 956h285v-946h213v-135h-213v-125q0 -48 13.5 -77t36 -44.5t53.5 -20.5t65 -5h26v-109h-718v109h57q35 0 65.5 5t53 20.5t36 44.5t13.5 77v125h-567zM170 516h424v358q0 90 3 194t11 200q-10 -24 -32 -66t-47 -86.5t-48 -84t-35 -58.5z" />
<glyph unicode="5" d="M82 227q0 72 44.5 107t119.5 35q0 -44 11.5 -88t38 -79t69.5 -57t106 -22q51 0 96.5 16t80 53.5t55 101t20.5 157.5q0 153 -73 228t-206 75q-39 0 -70.5 -3t-58.5 -8.5t-51 -12t-47 -13.5l-94 37l65 708h775l10 -372h-117l-16 69q-5 18 -11 32.5t-16.5 24.5t-26.5 15.5 t-41 5.5h-426q0 -1 -1.5 -17.5t-3.5 -43.5t-5 -61t-6 -69l-16 -188q16 6 41.5 11.5t55.5 10t63.5 7t64.5 2.5q119 0 215.5 -27.5t165 -82t106 -136.5t37.5 -192q0 -133 -48.5 -223.5t-125.5 -145.5t-172 -78.5t-188 -23.5q-115 0 -195 20.5t-130 55t-72.5 79t-22.5 92.5z " />
<glyph unicode="6" d="M92 676q0 169 35.5 316t108 256t182.5 172t258 63q99 0 168 -19t112 -50.5t62.5 -72t19.5 -84.5q0 -31 -13 -60t-42 -51t-75.5 -35t-114.5 -13q0 46 -6 93t-21 85t-41.5 62t-67.5 24q-60 0 -108.5 -36t-84 -105t-56.5 -169.5t-27 -230.5q21 14 48 27.5t61.5 24.5t78 17.5 t95.5 6.5q93 0 168.5 -29t129 -83.5t82.5 -133t29 -178.5q0 -110 -30 -200.5t-89.5 -155.5t-148 -101t-205.5 -36q-114 0 -207.5 41.5t-160 127.5t-103.5 217t-37 310zM381 674q1 -147 18.5 -253t48 -174t71 -100t87.5 -32q79 0 124.5 80.5t45.5 257.5q0 166 -50 242.5 t-138 76.5q-28 0 -59 -8.5t-59.5 -22.5t-52 -31.5t-36.5 -35.5z" />
<glyph unicode="7" d="M90 1032l10 430h977v-100l-565 -1362h-174l545 1239h-539q-56 0 -84.5 -26.5t-34.5 -77.5l-12 -103h-123z" />
<glyph unicode="8" d="M61 373q0 66 21.5 119t61.5 96.5t95.5 80t122.5 70.5q-122 71 -187.5 161t-65.5 210q0 71 24.5 138.5t80.5 119.5t147 83.5t223 31.5q108 0 189.5 -27t136.5 -75t82.5 -113.5t27.5 -143.5q0 -61 -19.5 -108t-55.5 -85.5t-87 -71.5t-115 -66q92 -45 157 -90.5t105.5 -95 t59 -104t18.5 -116.5q0 -97 -35.5 -172.5t-103 -127.5t-164.5 -79.5t-221 -27.5q-128 0 -222 31t-155.5 84t-91 125t-29.5 153zM338 365q0 -60 16.5 -109.5t47 -85t73 -55t94.5 -19.5q53 0 95.5 19t72.5 53t46 81t16 103q0 50 -17 90.5t-53.5 76t-93 69t-135.5 69.5 q-34 -22 -64 -50.5t-51.5 -64t-34 -79.5t-12.5 -98zM397 1135q0 -53 14.5 -93t42.5 -72t69 -57.5t95 -50.5q38 22 65 47t44.5 57t26 71.5t8.5 90.5q0 44 -12.5 86.5t-36.5 75.5t-59.5 53.5t-82.5 20.5q-42 0 -74.5 -17.5t-54.5 -48t-33.5 -72.5t-11.5 -91z" />
<glyph unicode="9" d="M72 987q0 111 32 202t92.5 156.5t147.5 101.5t197 36q111 0 205 -40t162.5 -124t106.5 -214t38 -310q0 -169 -33 -317.5t-103.5 -259t-182 -174.5t-269.5 -64q-93 0 -157 19.5t-104 52t-57.5 74t-17.5 85.5q0 45 24 75.5t76 41.5q15 -46 36 -86t50.5 -69.5t69 -46.5 t90.5 -17q138 0 212.5 149t84.5 444q-24 -30 -53.5 -55t-66.5 -44t-81.5 -29.5t-97.5 -10.5q-88 0 -161.5 27.5t-127 81t-83 133t-29.5 182.5zM369 999q0 -142 48 -215t144 -73q74 0 127 37.5t84 99.5q-1 131 -17.5 225t-45 154.5t-68.5 89.5t-88 29q-88 0 -136 -86.5 t-48 -260.5z" />
<glyph unicode=":" horiz-adv-x="623" d="M143 147q0 47 13 78.5t35.5 50.5t53.5 27t66 8q34 0 64.5 -8t53.5 -27t36.5 -50.5t13.5 -78.5q0 -46 -13.5 -77t-36.5 -50t-53.5 -27.5t-64.5 -8.5q-35 0 -66 8.5t-53.5 27.5t-35.5 50t-13 77zM143 952q0 47 13 78.5t35.5 50.5t53.5 27t66 8q34 0 64.5 -8t53.5 -27 t36.5 -50.5t13.5 -78.5q0 -46 -13.5 -77.5t-36.5 -50.5t-53.5 -27.5t-64.5 -8.5q-35 0 -66 8.5t-53.5 27.5t-35.5 50.5t-13 77.5z" />
<glyph unicode=";" horiz-adv-x="623" d="M92 -209q45 16 78.5 32t56 34.5t34 41t11.5 52.5q0 19 -11 31.5t-27.5 23.5t-36 22.5t-36 29.5t-27.5 44.5t-11 67.5q0 69 42 105t105 36q87 0 138 -60t51 -165q0 -65 -20 -126t-64 -113t-113.5 -93.5t-169.5 -68.5v106zM143 952q0 47 13 78.5t35.5 50.5t53.5 27t66 8 q34 0 64.5 -8t53.5 -27t36.5 -50.5t13.5 -78.5q0 -46 -13.5 -77.5t-36.5 -50.5t-53.5 -27.5t-64.5 -8.5q-35 0 -66 8.5t-53.5 27.5t-35.5 50.5t-13 77.5z" />
<glyph unicode="&#x3c;" d="M133 690v84l879 479v-161l-660 -361l660 -356v-162z" />
<glyph unicode="=" d="M129 461v143h887v-143h-887zM129 858v143h887v-143h-887z" />
<glyph unicode="&#x3e;" d="M133 213v162l660 356l-660 361v161l879 -479v-84z" />
<glyph unicode="?" horiz-adv-x="1126" d="M76 1245q0 50 26 93.5t79.5 75.5t135.5 50.5t195 18.5q108 0 200 -25.5t159 -74t105 -118.5t38 -159q0 -82 -25.5 -147t-76.5 -119t-127.5 -99.5t-178.5 -87.5l-41 -186h-125l-41 252q88 35 144 82.5t88.5 102t44.5 114.5t12 121q0 49 -9 89.5t-28.5 70t-50 45.5 t-72.5 16q-46 0 -77 -21t-50 -56t-27.5 -82t-8.5 -99q-63 0 -116 9t-91.5 26.5t-60 44.5t-21.5 63zM332 147q0 47 13 78.5t35.5 50.5t53.5 27t66 8q34 0 64.5 -8t53.5 -27t36.5 -50.5t13.5 -78.5q0 -46 -13.5 -77t-36.5 -50t-53.5 -27.5t-64.5 -8.5q-35 0 -66 8.5 t-53.5 27.5t-35.5 50t-13 77z" />
<glyph unicode="@" horiz-adv-x="1886" d="M104 500q0 137 33.5 262t95 231.5t149.5 193t197 148t236.5 94.5t269.5 33q178 0 313 -51t225.5 -139.5t136.5 -209t46 -259.5q0 -153 -37 -273t-97 -202.5t-135.5 -126t-152.5 -43.5q-91 0 -154 44.5t-97 147.5h-13q-21 -40 -48 -75t-61 -61t-76.5 -41t-96.5 -15 q-64 0 -122.5 21t-103 64t-70.5 109t-26 156q0 55 13 119t41.5 127.5t72 123t105 105t141 73t178.5 27.5q71 0 122 -18t83 -43l86 43h49l-86 -512q-2 -12 -4.5 -31t-4.5 -39t-3.5 -38.5t-1.5 -30.5q0 -42 9 -69t23 -42.5t31.5 -21t34.5 -5.5q41 0 82.5 34t75.5 99.5 t55.5 162.5t21.5 223q0 140 -42.5 245.5t-118 176t-180 106t-228.5 35.5q-97 0 -191.5 -27t-180 -79t-157.5 -127.5t-125 -172t-82.5 -213.5t-29.5 -252q0 -181 54 -309t146.5 -209t216 -118t261.5 -37q83 0 162 15t150 39t132 55t109 63l49 -78q-54 -41 -122.5 -77 t-149 -63t-171 -43t-188.5 -16q-117 0 -225 21.5t-202.5 65.5t-172.5 109.5t-133.5 153.5t-86 198t-30.5 243zM768 487q0 -102 36 -156.5t95 -54.5q44 0 75.5 21t53 55.5t35.5 77.5t22 88l82 418q-6 14 -17.5 24.5t-26.5 18t-31.5 11t-32.5 3.5q-52 0 -93.5 -26t-74 -68.5 t-55.5 -97t-38.5 -110.5t-22.5 -109.5t-7 -94.5z" />
<glyph unicode="A" horiz-adv-x="1542" d="M8 0v109h25q27 0 49.5 6t42 22.5t37 45.5t35.5 75l444 1204h281l428 -1206q15 -43 31.5 -71.5t36 -45t41.5 -23.5t46 -7h37v-109h-676v109h80q15 0 31 4.5t28.5 14t20.5 24.5t8 36q0 25 -6 48t-12 40l-72 205h-498l-59 -176q-8 -25 -16.5 -58.5t-8.5 -58.5q0 -20 8 -35 t21 -24.5t29.5 -14.5t34.5 -5h86v-109h-533zM489 606h414l-108 336q-11 35 -22.5 73.5t-23 78.5t-22 79.5t-18.5 75.5q-9 -31 -21 -68t-25.5 -76l-27 -78t-25.5 -75z" />
<glyph unicode="B" horiz-adv-x="1376" d="M57 0v109h84q23 0 42.5 4.5t33.5 18.5t22.5 40t8.5 70v981q0 41 -8.5 66.5t-23 39.5t-34 19.5t-41.5 5.5h-84v108h598q292 0 439 -90t147 -282q0 -68 -18.5 -118.5t-52.5 -87t-81.5 -62.5t-105.5 -44v-10q71 -18 129.5 -49.5t101 -77t66 -105.5t23.5 -135 q0 -202 -147 -301.5t-439 -99.5h-660zM571 125h136q68 0 116 15t78 48.5t43.5 87.5t13.5 132q0 75 -12 130.5t-41 91.5t-76 54t-118 18h-140v-577zM571 827h78q72 0 119.5 15t76 46.5t40.5 81.5t12 120t-13.5 117t-43.5 76t-78 41.5t-117 12.5h-74v-510z" />
<glyph unicode="C" horiz-adv-x="1368" d="M113 733q0 166 45 304t133.5 237t221 154t306.5 55q118 0 205.5 -18.5t145.5 -50.5t87 -75.5t29 -93.5q0 -38 -16.5 -70.5t-49 -56.5t-80.5 -37.5t-110 -13.5q0 51 -11 101.5t-37.5 91.5t-69.5 66.5t-107 25.5q-97 0 -164 -41t-107.5 -120t-58.5 -194.5t-18 -263.5 t22 -259t71 -184.5t127.5 -110t192.5 -36.5q75 0 133.5 17.5t104.5 45.5t80.5 63t60.5 69q16 -12 25.5 -37t9.5 -51q0 -43 -23 -90.5t-77 -87.5t-143 -66t-220 -26q-178 0 -311 54t-221 153t-132 238t-44 308z" />
<glyph unicode="D" horiz-adv-x="1571" d="M57 0v109h86q23 0 42 4.5t33 18.5t22 40t8 70v987q0 41 -8 65.5t-22.5 37.5t-33.5 17.5t-41 4.5h-86v108h676q170 0 304.5 -44.5t228 -133t143 -220.5t49.5 -306q0 -168 -46 -307.5t-137.5 -239.5t-227 -155.5t-314.5 -55.5h-676zM571 127h115q105 0 185 43.5 t133.5 125.5t80.5 198.5t27 263.5q0 293 -107.5 436t-316.5 143h-117v-1210z" />
<glyph unicode="E" horiz-adv-x="1337" d="M57 0v109h86q22 0 41 4t33.5 16.5t22.5 37t8 64.5v990q0 44 -8 70t-22 40t-33 18.5t-42 4.5h-86v108h1137l8 -377h-143l-10 97q-8 75 -38 115t-93 40h-345v-512h486v-123h-486v-577h410q31 0 53 11.5t38 32.5t25.5 49.5t14.5 62.5l16 96h142l-15 -377h-1200z" />
<glyph unicode="F" horiz-adv-x="1272" d="M57 0v109h86q22 0 41 4t33.5 16.5t22.5 37t8 64.5v998q0 41 -8 65.5t-22.5 37.5t-33.5 17.5t-41 4.5h-86v108h1135l10 -377h-143l-10 99q-10 81 -49.5 117t-102.5 36h-326v-559h486v-121h-486v-415q0 -44 8.5 -70t22.5 -40t34 -18.5t42 -4.5h127v-109h-748z" />
<glyph unicode="G" horiz-adv-x="1575" d="M113 733q0 166 49 304t145 237t239 154t331 55q128 0 223.5 -18.5t160 -50.5t96.5 -75.5t32 -93.5q0 -36 -17 -67.5t-51 -55.5t-83 -37.5t-114 -13.5q0 62 -15 114t-46.5 89t-79.5 57.5t-113 20.5q-112 0 -190.5 -41t-128 -120t-72 -194.5t-22.5 -263.5t23.5 -262.5 t76 -192.5t136 -118.5t204.5 -40.5q38 0 76 3t74 11v301q0 82 -37 114t-109 32h-27v108h644v-108h-27q-31 0 -54 -7.5t-38 -25.5t-22 -47.5t-7 -73.5v-336q-120 -55 -242 -82.5t-262 -27.5q-190 0 -331.5 54t-235.5 153t-140 238t-46 308z" />
<glyph unicode="H" horiz-adv-x="1677" d="M57 0v109h86q22 0 41 4.5t33.5 18.5t22.5 40t8 70v986q0 41 -8.5 65.5t-23 37.5t-33.5 17.5t-40 4.5h-86v109h707v-109h-88q-22 0 -41 -4.5t-33 -18.5t-22.5 -40t-8.5 -70v-395h535v395q0 44 -8 70t-22.5 40t-33.5 18.5t-41 4.5h-88v109h707v-109h-86q-21 0 -40 -4.5 t-33.5 -18.5t-22.5 -40t-8 -70v-989q0 -40 8.5 -64.5t23 -37t33 -16.5t39.5 -4h86v-109h-707v109h88q22 0 41 4.5t33.5 18.5t22.5 40t8 70v458h-535v-458q0 -44 8.5 -70t22.5 -40t33 -18.5t41 -4.5h88v-109h-707z" />
<glyph unicode="I" horiz-adv-x="821" d="M57 0v109h86q23 0 42 4.5t33 18.5t22 40t8 70v978q0 44 -8 70t-22 40t-33 18.5t-42 4.5h-86v109h707v-109h-86q-22 0 -41.5 -4.5t-33.5 -18.5t-22 -40t-8 -70v-978q0 -44 8 -70t22 -40t33.5 -18.5t41.5 -4.5h86v-109h-707z" />
<glyph unicode="J" horiz-adv-x="754" d="M-80 -373h37q49 0 95.5 18.5t82.5 61.5t58 113.5t22 173.5v1235q0 41 -8 65.5t-22.5 37.5t-33.5 17.5t-40 4.5h-86v108h706v-108h-86q-22 0 -41.5 -4.5t-33.5 -18.5t-22.5 -40t-8.5 -70v-1225q0 -93 -21 -165t-58 -126.5t-88.5 -92t-112 -60.5t-128 -33.5t-137.5 -10.5 h-74v119z" />
<glyph unicode="K" horiz-adv-x="1503" d="M57 0v109h86q22 0 41 4t33.5 16.5t22.5 37t8 64.5v998q0 41 -8 65.5t-22.5 37.5t-33.5 17.5t-41 4.5h-86v108h707v-108h-86q-22 0 -42 -4.5t-34 -18.5t-22.5 -40t-8.5 -70v-478l318 347q33 35 55.5 63.5t36 53t19.5 46.5t6 43q0 34 -26 47t-89 13v106h555v-106 q-42 0 -79.5 -13t-73.5 -37t-71 -57t-71 -73l-270 -297l381 -605q30 -48 57.5 -79.5t55.5 -50.5t57 -27t63 -8h8v-109h-110q-78 0 -137 5t-103.5 15t-76.5 25.5t-56 36.5t-43.5 47.5t-38.5 58.5l-276 471l-91 -71v-346q0 -44 8.5 -70t22.5 -40t34 -18.5t42 -4.5h86v-109 h-707z" />
<glyph unicode="L" horiz-adv-x="1339" d="M57 0v109h86q23 0 42 4.5t33 18.5t22 40t8 70v979q0 44 -8 70t-22 40t-33 18.5t-42 4.5h-86v108h707v-108h-86q-21 0 -40.5 -4.5t-33.5 -17.5t-22.5 -37.5t-8.5 -65.5v-1104h381q72 0 112 45.5t58 132.5l33 154h115l-15 -457h-1200z" />
<glyph unicode="M" horiz-adv-x="1950" d="M57 0v109h86q22 0 41 4t33.5 16.5t22.5 37t8 64.5v998q0 41 -8 65.5t-22.5 37.5t-33.5 17.5t-41 4.5h-86v108h590l340 -989l326 989h579v-108h-86q-22 0 -41 -4.5t-33 -18.5t-22 -40t-8 -70v-979q0 -44 8 -70t22 -40t33 -18.5t41 -4.5h86v-109h-655v109h20q32 0 56.5 4 t40.5 16t24 34.5t8 59.5v1037l-413 -1260h-139l-433 1260v-1018q0 -44 10.5 -70t30 -40t47.5 -18.5t64 -4.5h12v-109h-508z" />
<glyph unicode="N" horiz-adv-x="1614" d="M57 0v109h86q22 0 41 4.5t33.5 18.5t22.5 40t8 70v987q0 41 -8.5 65.5t-23 37.5t-33.5 17.5t-40 4.5h-86v108h455l723 -1022v789q0 41 -8.5 65.5t-23 37.5t-33.5 17.5t-40 4.5h-86v108h535v-108h-86q-21 0 -40 -4.5t-33.5 -18.5t-22.5 -40t-8 -70v-1221h-189l-799 1128 v-886q0 -44 8.5 -70t22.5 -40t33.5 -18.5t40.5 -4.5h86v-109h-535z" />
<glyph unicode="O" horiz-adv-x="1612" d="M113 735q0 170 43 308.5t129.5 236.5t217 151.5t306.5 53.5q166 0 294.5 -53.5t216.5 -152t133.5 -237t45.5 -309.5q0 -169 -45.5 -308t-134 -238t-217 -153t-295.5 -54q-175 0 -305.5 54t-216.5 153t-129 238.5t-43 309.5zM457 733q0 -147 19 -262t61 -194.5 t108.5 -121.5t161.5 -42q96 0 162.5 42t107.5 121.5t59.5 194.5t18.5 262t-18.5 262t-59.5 194.5t-107 121t-161 41.5q-96 0 -163 -41.5t-109 -121t-61 -194.5t-19 -262z" />
<glyph unicode="P" horiz-adv-x="1307" d="M57 0v109h86q23 0 42 4.5t33 18.5t22 40t8 70v987q0 41 -8 65.5t-22.5 37.5t-33.5 17.5t-41 4.5h-86v108h629q142 0 247 -30t174.5 -86.5t103.5 -136.5t34 -181q0 -92 -32 -177t-104 -150t-187 -103.5t-281 -38.5h-70v-328q0 -40 9 -64.5t24 -37t35 -16.5t41 -4h125v-109 h-748zM571 678h50q76 0 129 19t86.5 60t49 106t15.5 157q0 82 -13.5 142.5t-43 100t-77 59t-116.5 19.5h-80v-663z" />
<glyph unicode="Q" horiz-adv-x="1612" d="M113 735q0 170 43 308.5t129.5 236.5t217 151.5t306.5 53.5q166 0 294.5 -53.5t216.5 -152t133.5 -237t45.5 -309.5q0 -144 -32.5 -265.5t-95.5 -215.5t-156 -158.5t-214 -93.5q9 -113 37 -185.5t68.5 -114t89.5 -57.5t100 -16h33v-119h-147q-92 0 -181.5 27t-162 85.5 t-121 150t-58.5 221.5q-138 21 -240.5 83.5t-170.5 158.5t-101.5 223t-33.5 278zM457 733q0 -147 19 -262t61 -194.5t108.5 -121.5t161.5 -42q96 0 162.5 42t107.5 121.5t59.5 194.5t18.5 262t-18.5 262t-59.5 194.5t-107 121t-161 41.5q-96 0 -163 -41.5t-109 -121 t-61 -194.5t-19 -262z" />
<glyph unicode="R" horiz-adv-x="1448" d="M57 0v109h86q21 0 40 4t33.5 16.5t23 37t8.5 64.5v998q0 41 -8.5 65.5t-23 37.5t-33.5 17.5t-40 4.5h-86v108h660q290 0 425.5 -97t135.5 -282q0 -81 -24 -144t-63.5 -110t-89.5 -79.5t-102 -53.5l244 -420q26 -44 50.5 -75.5t49 -52t50.5 -30t55 -9.5h8v-109h-67 q-92 0 -160.5 7t-120 27.5t-89 56.5t-69.5 93l-243 451h-136v-404q0 -40 8.5 -64.5t23 -37t33.5 -16.5t40 -4h88v-109h-707zM571 754h115q71 0 118.5 19t76 56.5t41 94t12.5 131.5q0 78 -14 132t-44 88.5t-78 50t-116 15.5h-111v-587z" />
<glyph unicode="S" horiz-adv-x="1200" d="M61 266q0 53 19.5 89t52 59t74 33t86.5 10q0 -88 21 -154.5t58 -111t88.5 -67t112.5 -22.5q60 0 107 17t80 47t50 70.5t17 87.5q0 52 -21 92.5t-63.5 75t-107 66t-150.5 67.5q-107 44 -180.5 90.5t-118.5 100.5t-64.5 117t-19.5 138q0 94 38 170t105 130t159 83t200 29 q113 0 195 -18.5t135.5 -50.5t79.5 -75.5t26 -93.5q0 -36 -15.5 -67t-47 -54t-79 -36t-110.5 -13q0 43 -11.5 92.5t-37.5 92t-67.5 70.5t-100.5 28q-41 0 -78 -12t-64.5 -36t-43.5 -59.5t-16 -81.5q0 -43 14 -81t51.5 -74.5t103 -73t169.5 -78.5q105 -43 179 -88 t121.5 -96.5t69 -113t21.5 -136.5q0 -99 -39 -181.5t-112 -141.5t-175.5 -92t-230.5 -33q-138 0 -230 26t-147.5 67t-79 92t-23.5 101z" />
<glyph unicode="T" horiz-adv-x="1337" d="M20 1065l11 397h1276l10 -397h-137l-15 127q-4 34 -13.5 61t-29 45.5t-50.5 28.5t-77 10h-164v-1095q0 -44 8 -70t22.5 -40t33.5 -18.5t41 -4.5h86v-109h-707v109h86q23 0 42 4.5t33 18.5t22 40t8 70v1095h-164q-46 0 -77 -10t-50.5 -28.5t-29 -45.5t-13.5 -61l-14 -127 h-138z" />
<glyph unicode="U" horiz-adv-x="1530" d="M33 1354v108h706v-108h-86q-21 0 -40 -4.5t-33.5 -18.5t-22.5 -40t-8 -70v-791q0 -86 21.5 -144.5t61.5 -94t96 -51t126 -15.5q68 0 123 17.5t93.5 54.5t59.5 94t21 135v803q0 41 -8 65.5t-22.5 37.5t-33.5 17.5t-40 4.5h-86v108h536v-108h-88q-21 0 -40 -4.5 t-33.5 -18.5t-22.5 -40t-8 -70v-799q0 -103 -29.5 -185t-92 -139t-159.5 -87.5t-231 -30.5t-239.5 25.5t-178.5 81.5t-111.5 144.5t-38.5 214.5v783q0 41 -8.5 65.5t-23 37.5t-33 17.5t-39.5 4.5h-88z" />
<glyph unicode="V" horiz-adv-x="1430" d="M0 1354v108h676v-108h-94q-15 0 -29 -3.5t-25.5 -11.5t-18.5 -21t-7 -32q0 -20 6 -45.5t12 -42.5l209 -631q8 -23 16.5 -54t16.5 -65t14.5 -67.5t9.5 -61.5q3 17 10.5 46.5t17.5 64t20.5 69t19.5 62.5l211 623q4 11 8.5 24.5t8 27.5t6 27t2.5 21q0 34 -22.5 52t-59.5 18 h-107v108h529v-108h-99q-14 0 -25 -6t-22 -22.5t-23 -45.5t-28 -76l-418 -1204h-205l-436 1255q-10 29 -25.5 48.5t-33 30.5t-35.5 15.5t-33 4.5h-47z" />
<glyph unicode="W" horiz-adv-x="2185" d="M0 1354v108h684v-108h-47q-62 0 -92.5 -24t-30.5 -75q0 -17 6.5 -49.5t14.5 -60.5l137 -473q11 -39 23.5 -84.5t23.5 -92t20 -89.5t13 -76q14 66 30.5 123.5t34.5 117.5l270 877h150l283 -782q18 -48 33.5 -97.5t28.5 -94.5t23 -83t15 -65q8 37 17 82t19.5 94.5t22 101.5 t23.5 101l108 442q3 12 6.5 28t6.5 31.5t4.5 29t1.5 21.5q0 53 -31.5 75t-99.5 22h-47v108h534v-108h-39q-30 0 -53 -6t-41 -23.5t-32.5 -48.5t-28.5 -82l-318 -1194h-233l-344 961l-295 -961h-254l-375 1245q-9 32 -22 53t-30.5 33.5t-40 17.5t-52.5 5h-27z" />
<glyph unicode="X" horiz-adv-x="1499" d="M20 0v109h13q37 0 65 10t52.5 28.5t47.5 45t48 59.5l358 467l-338 526q-17 27 -33.5 47.5t-37 34t-45.5 20.5t-60 7h-27v108h678v-108h-6q-35 0 -58.5 -4.5t-37.5 -13t-19.5 -19.5t-5.5 -23q0 -21 15.5 -53t38.5 -67l170 -254l178 249q18 28 36.5 62.5t18.5 62.5 q0 18 -9 30t-24.5 18.5t-36.5 9t-45 2.5h-6v108h480v-108h-19q-30 0 -54 -7.5t-47.5 -25t-47.5 -45.5t-54 -70l-297 -405l377 -584q40 -63 83 -85.5t81 -22.5h27v-109h-676v109h10q123 0 123 67q0 12 -2 23t-9.5 26t-20.5 37t-36 55l-188 285l-221 -299q-19 -26 -36 -59.5 t-17 -65.5q0 -34 28 -51.5t96 -17.5h7v-109h-517z" />
<glyph unicode="Y" horiz-adv-x="1419" d="M0 1354v108h686v-108h-35q-62 0 -92.5 -25t-30.5 -67q0 -26 9.5 -56.5t21.5 -56.5l152 -301q32 -65 52.5 -115t37.5 -98q21 54 48.5 117.5t61.5 132.5l119 245q22 45 28.5 75.5t6.5 47.5q0 53 -33.5 77t-101.5 24h-47v108h536v-108h-39q-26 0 -44.5 -7t-35 -25t-34 -49 t-41.5 -79l-348 -678v-280q0 -45 9 -70t24.5 -38t36 -16t44.5 -3h101v-109h-756v109h96q25 0 46.5 3t37.5 15.5t25.5 37.5t9.5 68v285l-379 727q-15 30 -28.5 51t-29.5 33.5t-36.5 18.5t-50.5 6h-27z" />
<glyph unicode="Z" horiz-adv-x="1364" d="M86 0v102l768 1235h-403q-48 0 -79 -13t-49.5 -37.5t-27 -59t-12.5 -76.5l-11 -111h-147l10 422h1094v-104l-770 -1233h442q63 0 103 17.5t63.5 46.5t34 65.5t14.5 75.5l10 92h148l-10 -422h-1178z" />
<glyph unicode="[" horiz-adv-x="848" d="M205 -262v1818h567v-108h-88q-34 0 -65 -5t-53.5 -20.5t-36 -44.5t-13.5 -78v-1306q0 -48 13.5 -77.5t36 -45t53.5 -20.5t65 -5h88v-108h-567z" />
<glyph unicode="\" horiz-adv-x="590" d="M0 1556h145l445 -1804h-148z" />
<glyph unicode="]" horiz-adv-x="848" d="M76 -154h88q35 0 65.5 5t53 20.5t36 45t13.5 77.5v1306q0 49 -13.5 78t-36 44.5t-53 20.5t-65.5 5h-88v108h567v-1818h-567v108z" />
<glyph unicode="^" d="M94 537l432 925h88l435 -925h-160l-320 702l-315 -702h-160z" />
<glyph unicode="_" horiz-adv-x="940" d="M-10 -170h960v-121h-960v121z" />
<glyph unicode="`" horiz-adv-x="1182" d="M332 1548v21h321q16 -34 41 -74.5t52.5 -81t55.5 -78.5t50 -67v-27h-139q-48 28 -106.5 69.5t-113 85.5t-98.5 84.5t-63 67.5z" />
<glyph unicode="a" horiz-adv-x="1227" d="M92 313q0 167 114.5 247t344.5 87l168 6v113q0 51 -4 94t-17 74t-38.5 48t-67.5 17q-39 0 -65.5 -16.5t-42.5 -46t-22.5 -70t-6.5 -88.5q-138 0 -207.5 31t-69.5 106q0 56 33.5 96t91 65t134 36.5t163.5 11.5q108 0 188.5 -18.5t134 -59.5t80.5 -107.5t27 -162.5v-522 q0 -42 6.5 -70t20.5 -44.5t38 -23.5t58 -7h8v-109h-381l-43 141h-18q-34 -41 -64 -71.5t-64 -50.5t-76.5 -29.5t-100.5 -9.5q-68 0 -126.5 20t-102 61.5t-68.5 104t-25 147.5zM410 305q0 -88 28 -132t88 -44q44 0 79.5 18.5t61 52.5t39 82.5t13.5 108.5v154l-92 -6 q-61 -3 -103 -19.5t-67 -45.5t-36 -71t-11 -98z" />
<glyph unicode="b" horiz-adv-x="1329" d="M35 0v109h14q29 0 57 5t50 20t35.5 43t13.5 75v1059q0 44 -13 70.5t-35 41.5t-51.5 20t-62.5 5h-8v108h481v-350q0 -32 -2.5 -75t-5.5 -81q-4 -45 -8 -92h14q44 76 117.5 120t189.5 44q100 0 176.5 -33.5t129 -103t79.5 -177t27 -255.5q0 -149 -27.5 -257t-80.5 -178.5 t-131.5 -104t-180.5 -33.5q-59 0 -107 13t-86.5 37t-68 57t-51.5 73h-19l-57 -160h-389zM516 553q0 -101 10 -179.5t34 -132t65 -81t102 -27.5q101 0 146 109t45 313q0 209 -45 312.5t-148 103.5q-61 0 -101 -25.5t-64 -77.5t-34 -130.5t-10 -184.5z" />
<glyph unicode="c" horiz-adv-x="1079" d="M96 545q0 166 38.5 277t106 178t159.5 95.5t198 28.5q99 0 175 -16.5t127 -45.5t77.5 -68.5t26.5 -84.5q0 -33 -11.5 -64.5t-41 -55.5t-81 -39t-131.5 -15q0 53 -6.5 101t-21.5 84t-40.5 57.5t-64.5 21.5q-45 0 -80.5 -21.5t-61 -73.5t-39 -139t-13.5 -218 q0 -208 57 -311t186 -103q53 0 99.5 12.5t84.5 35t66.5 53t46.5 65.5q25 -15 37 -40.5t12 -53.5q0 -39 -23 -79t-71.5 -72.5t-123.5 -53t-179 -20.5q-113 0 -206.5 29t-160.5 96t-104 175t-37 265z" />
<glyph unicode="d" horiz-adv-x="1329" d="M94 547q0 148 27.5 256.5t80.5 179t130 105t176 34.5q58 0 104.5 -12.5t84 -34t66.5 -51.5t50 -66h14q-4 57 -8 107q-1 21 -2.5 43t-3 41.5t-2 34.5t-0.5 24v113q0 42 -13.5 67.5t-36 38.5t-52.5 17t-64 4h-16v108h493v-1304q0 -47 14 -75t37.5 -43t54 -20t64.5 -5h8 v-109h-397l-57 160h-19q-23 -42 -52.5 -75t-68 -56.5t-86.5 -36t-108 -12.5q-100 0 -178 33.5t-131.5 103t-81 176.5t-27.5 254zM410 549q0 -209 43.5 -312.5t146.5 -103.5q61 0 101.5 25.5t65 77.5t34.5 130.5t10 184.5q0 101 -10 179.5t-34.5 132t-65 81t-101.5 27.5 q-51 0 -87.5 -27.5t-59 -81.5t-33 -132.5t-10.5 -180.5z" />
<glyph unicode="e" horiz-adv-x="1169" d="M96 543q0 144 34 253t99 182t159.5 109.5t215.5 36.5q111 0 200 -31.5t151 -93.5t95 -154t33 -214v-105h-671q3 -103 22.5 -177t54 -122t84 -71t113.5 -23q53 0 98 12.5t81.5 35t64 53t45.5 65.5q55 -30 55 -100q0 -44 -24 -83.5t-74 -69.5t-125.5 -48t-179.5 -18 q-130 0 -229.5 38t-166.5 110t-101 176.5t-34 238.5zM416 657h354q0 78 -9 140t-28.5 105t-50 66t-74.5 23q-86 0 -136.5 -85t-55.5 -249z" />
<glyph unicode="f" horiz-adv-x="834" d="M39 0v109h45q22 0 47.5 4.5t47 18.5t36 40t14.5 70v716h-182v140h182v76q0 95 24.5 169.5t76 126t130.5 78.5t187 27q99 0 165 -11.5t105 -32t55.5 -47.5t16.5 -59q0 -69 -62.5 -101t-189.5 -32q0 25 -5 54t-17 54t-31.5 41.5t-48.5 16.5q-25 0 -43 -13.5t-29.5 -43 t-16.5 -76.5t-5 -115v-112h282v-140h-282v-716q0 -44 14.5 -70t36 -40t47 -18.5t47.5 -4.5h96v-109h-743z" />
<glyph unicode="g" horiz-adv-x="1147" d="M4 -207q0 110 71 168.5t206 69.5q-28 11 -55 27t-48 38.5t-34 51.5t-13 65q0 34 13.5 63t37.5 55.5t57.5 50t73.5 46.5q-45 16 -83.5 44.5t-66 68.5t-43.5 91t-16 113q0 180 104.5 279.5t323.5 99.5q73 0 135.5 -18.5t108.5 -44.5q17 18 37.5 38.5t46.5 37.5t58 28t71 11 q37 0 64.5 -9.5t46 -25.5t28 -37t9.5 -45q0 -23 -7 -44.5t-23.5 -37.5t-45 -25.5t-70.5 -9.5q0 21 -6.5 37t-17.5 27t-25 16.5t-29 5.5q-17 0 -36.5 -7t-30.5 -15q21 -23 39 -52.5t31.5 -63.5t21.5 -70.5t8 -74.5q0 -77 -24.5 -142.5t-75.5 -113.5t-129 -75t-185 -27 q-11 0 -28 0.5l-34 1t-32.5 2t-23.5 2.5q-13 -7 -26.5 -17.5t-24 -23.5t-17 -29t-6.5 -34q0 -34 26.5 -50t69.5 -16h248q102 0 176 -21.5t122.5 -61.5t71.5 -98.5t23 -131.5q0 -95 -36 -169.5t-109.5 -126t-185 -79t-263.5 -27.5q-242 0 -360.5 72.5t-118.5 212.5zM246 -203 q0 -85 61.5 -125.5t179.5 -40.5q180 0 262 52t82 153q0 65 -41 91t-124 26h-238q-31 0 -63 -5.5t-58.5 -22.5t-43.5 -47.5t-17 -80.5zM383 745q0 -54 7.5 -97.5t24.5 -74.5t44 -48t67 -17q41 0 68 16.5t43 48t22.5 76t6.5 99.5q0 57 -7 103.5t-23.5 79.5t-43.5 51.5 t-68 18.5q-40 0 -67 -19t-43.5 -53t-23.5 -81t-7 -103z" />
<glyph unicode="h" horiz-adv-x="1366" d="M35 1448v108h481v-337q0 -40 -2.5 -86t-5.5 -85q-4 -46 -8 -90h18q31 58 65.5 91t73.5 49.5t82.5 21t91.5 4.5q79 0 142 -23t106.5 -71t66.5 -122.5t23 -178.5v-475q0 -48 8.5 -76.5t25.5 -43.5t43 -20t61 -5h6v-109h-455v674q0 66 -8.5 117.5t-28 86.5t-51 53.5 t-76.5 18.5q-51 0 -85 -26t-54.5 -69.5t-29.5 -101t-9 -120.5v-391q0 -43 10.5 -69t29.5 -40.5t46.5 -19t61.5 -4.5h6v-109h-629v109h4q35 0 64 4.5t50.5 19.5t33.5 43t12 74v1073q0 41 -14.5 65.5t-36.5 38t-47.5 17.5t-47.5 4h-24z" />
<glyph unicode="i" horiz-adv-x="721" d="M35 0v109h24q23 0 48.5 4.5t47 18.5t36 40t14.5 70v622q0 41 -14.5 65.5t-36.5 38t-47.5 17.5t-47.5 4h-24v109h481v-856q0 -44 14.5 -70t36 -40t47.5 -18.5t48 -4.5h24v-109h-651zM176 1430q0 39 13.5 67t37 45.5t55 26t68.5 8.5q35 0 67 -8.5t56 -26t38.5 -45.5 t14.5 -67q0 -38 -14.5 -66t-38.5 -46t-56 -27t-67 -9q-37 0 -68.5 9t-55 27t-37 46t-13.5 66z" />
<glyph unicode="j" horiz-adv-x="707" d="M-41 -365h14q56 0 99.5 18t73 60t44.5 112t15 175v854q0 44 -13 70.5t-35.5 41t-52.5 19t-63 4.5h-6v109h481v-1114q0 -138 -38.5 -229.5t-107 -146t-163 -77.5t-207.5 -23h-41v127zM178 1430q0 39 13.5 67t37 45.5t55 26t68.5 8.5q35 0 67 -8.5t56 -26t38.5 -45.5 t14.5 -67q0 -38 -14.5 -66t-38.5 -46t-56 -27t-67 -9q-37 0 -68.5 9t-55 27t-37 46t-13.5 66z" />
<glyph unicode="k" horiz-adv-x="1303" d="M35 0v109h24q23 0 48.5 4.5t47 18.5t36 40t14.5 70v1081q0 41 -14.5 65.5t-36.5 38t-47.5 17.5t-47.5 4h-24v108h481v-790q0 -28 -1.5 -64.5t-3.5 -69.5q-3 -39 -5 -79l258 289q34 38 44.5 60.5t10.5 37.5q0 26 -27.5 40.5t-78.5 14.5v103h516v-103q-71 0 -139.5 -41.5 t-149.5 -132.5l-129 -147l272 -406q54 -81 109 -120t104 -39h7v-109h-29q-112 0 -188 5t-131 23t-95 54.5t-80 99.5l-182 287l-82 -61v-166q0 -44 14.5 -70t36 -40t47.5 -18.5t48 -4.5h24v-109h-651z" />
<glyph unicode="l" horiz-adv-x="721" d="M35 0v109h24q23 0 48.5 4.5t47 18.5t36 40t14.5 70v1081q0 41 -14.5 65.5t-36.5 38t-47.5 17.5t-47.5 4h-24v108h481v-1314q0 -44 14.5 -70t36 -40t47.5 -18.5t48 -4.5h24v-109h-651z" />
<glyph unicode="m" horiz-adv-x="2019" d="M41 0v109h4q35 0 64 4.5t50.5 19.5t33.5 43t12 74v612q0 43 -10.5 69t-30 40.5t-46.5 19t-61 4.5h-6v103h430l27 -146h10q31 58 65.5 92t73.5 52t82.5 23t91.5 5q113 0 193 -40.5t117 -131.5h18q31 58 67.5 92t78 52t87 23t93.5 5q79 0 142 -23t106.5 -71t66.5 -122.5 t23 -178.5v-475q0 -48 8.5 -76.5t25.5 -43.5t43 -20t60 -5h6v-109h-455v674q0 132 -36.5 204t-126.5 72q-48 0 -82 -23.5t-55.5 -63.5t-31.5 -93.5t-10 -112.5v-403q0 -48 8.5 -76.5t25.5 -43.5t43 -20t61 -5h6v-109h-455v674q0 66 -8.5 117.5t-28 86.5t-51 53.5t-76.5 18.5 q-51 0 -85 -26t-54.5 -69.5t-29.5 -101t-9 -120.5v-391q0 -43 10.5 -69t29.5 -40.5t46.5 -19t61.5 -4.5h6v-109h-629z" />
<glyph unicode="n" horiz-adv-x="1366" d="M41 0v109h4q35 0 64 4.5t50.5 19.5t33.5 43t12 74v606q0 43 -10.5 69t-30 40.5t-46.5 19t-61 4.5h-6v109h430l27 -146h10q31 58 65.5 92t73.5 52t82.5 23t91.5 5q79 0 142 -23t106.5 -71t66.5 -122.5t23 -178.5v-475q0 -48 8.5 -76.5t25.5 -43.5t43 -20t61 -5h6v-109 h-455v674q0 66 -8.5 117.5t-28 86.5t-51 53.5t-76.5 18.5q-51 0 -85 -26t-54.5 -69.5t-29.5 -101t-9 -120.5v-391q0 -43 10.5 -69t29.5 -40.5t46.5 -19t61.5 -4.5h6v-109h-629z" />
<glyph unicode="o" horiz-adv-x="1255" d="M96 553q0 289 135.5 430t399.5 141q123 0 220.5 -35t166 -106t105 -178.5t36.5 -251.5q0 -289 -135.5 -431t-398.5 -142q-123 0 -221 35.5t-166.5 106.5t-105 179t-36.5 252zM414 553q0 -109 11.5 -192t37 -139t66.5 -84.5t100 -28.5t99.5 28.5t66 84.5t36.5 139t11 192 q0 110 -11.5 192.5t-37 137.5t-66.5 82.5t-100 27.5t-100 -27.5t-66 -82.5t-36 -137.5t-11 -192.5z" />
<glyph unicode="p" horiz-adv-x="1321" d="M27 -383h24q23 0 48.5 4.5t47 18.5t36 40t14.5 70v1096q0 47 -10.5 75t-29 43t-44 20t-54.5 5h-14v109h401l37 -160h9q22 40 51.5 73t68 57t86.5 37t107 13q102 0 180.5 -33.5t131.5 -104t80.5 -178.5t27.5 -257q0 -148 -27 -255.5t-79.5 -177.5t-129 -103.5 t-176.5 -33.5q-117 0 -190 44.5t-117 119.5h-14q4 -47 8 -92q3 -38 5.5 -81t2.5 -75v-141q0 -44 14.5 -70t36 -40t47 -18.5t47.5 -4.5h45v-109h-671v109zM508 545q0 -106 10 -184.5t34 -130.5t64 -77.5t101 -25.5q103 0 147.5 103.5t44.5 312.5q0 204 -44.5 313t-145.5 109 q-61 0 -102 -27.5t-65 -81t-34 -132t-10 -179.5z" />
<glyph unicode="q" horiz-adv-x="1327" d="M94 551q0 147 27.5 254t81 176.5t131.5 103t178 33.5q60 0 108 -12.5t86.5 -36t68 -56.5t52.5 -75h19l41 160h413v-109h-8q-34 0 -64.5 -5t-54 -20t-37.5 -43t-14 -75v-1102q0 -42 13.5 -67.5t36 -38.5t52.5 -17t64 -4h37v-109h-717v109h37q34 0 64 4t52.5 17t36 38.5 t13.5 67.5v150q0 9 0.5 24t2 34.5t3 41t2.5 42.5q4 49 8 107h-14q-21 -35 -50 -65t-66.5 -51.5t-84 -34t-104.5 -12.5q-99 0 -176 33.5t-130 103.5t-80.5 178t-27.5 256zM410 549q0 -205 43.5 -311.5t146.5 -106.5q61 0 101.5 27t65 79.5t34.5 130t10 179.5q0 106 -10 184.5 t-34.5 130.5t-65 77.5t-101.5 25.5q-103 0 -146.5 -103.5t-43.5 -312.5z" />
<glyph unicode="r" horiz-adv-x="1071" d="M41 0v109h6q35 0 64 5t50 20.5t32.5 44.5t11.5 77v594q0 45 -10.5 72.5t-30 42.5t-46.5 19.5t-61 4.5h-6v109h414l41 -160h10q20 46 44 80.5t57.5 57.5t79 34.5t108.5 11.5q121 0 178 -42.5t57 -123.5q0 -94 -68 -146t-192 -52q0 42 -4.5 74t-16 53t-31 32t-48.5 11 q-36 0 -62 -18t-44 -46.5t-29.5 -64.5t-18 -72.5t-8.5 -69.5t-2 -57v-354q0 -45 11 -72.5t30 -41.5t45.5 -18.5t56.5 -4.5h66v-109h-684z" />
<glyph unicode="s" horiz-adv-x="999" d="M61 219q0 50 19.5 80.5t49 47.5t62.5 22.5t60 5.5q0 -64 16 -115t45 -86.5t69.5 -54.5t90.5 -19q53 0 91.5 11t63 30.5t36.5 45t12 53.5q0 34 -12.5 60.5t-41.5 50t-77.5 46t-120.5 47.5q-83 29 -146.5 61.5t-107 74t-66 95t-22.5 122.5q0 82 31.5 143t89.5 101.5 t139 60.5t180 20q97 0 165 -16.5t111 -43.5t63 -61t20 -69q0 -69 -48.5 -105t-160.5 -36q0 102 -45.5 158.5t-134.5 56.5q-33 0 -63.5 -8t-53 -24t-36 -39.5t-13.5 -55.5q0 -33 12.5 -59t44 -49.5t85.5 -47.5t138 -53q68 -24 125.5 -54.5t99 -70t64.5 -90t23 -115.5 q0 -85 -29.5 -152t-86.5 -113t-140 -70.5t-189 -24.5q-111 0 -189.5 18t-128 50t-72 76t-22.5 95z" />
<glyph unicode="t" horiz-adv-x="829" d="M43 958v105q66 0 118 26t83 60q63 66 94 203h170v-254h262v-140h-262v-634q0 -93 31.5 -136t103.5 -43q40 0 76.5 5.5t68.5 13.5v-133q-16 -8 -43.5 -17t-64 -16.5t-82.5 -12.5t-100 -5q-69 0 -125 16.5t-95 55t-60 100t-21 151.5v655h-154z" />
<glyph unicode="u" horiz-adv-x="1366" d="M53 989v109h455v-656q0 -66 7.5 -119t25.5 -90.5t48 -58t75 -20.5q49 0 84.5 21.5t58 62t33 98t10.5 129.5v393q0 45 -12 71t-32 39.5t-47 17t-57 3.5h-6v109h465v-860q0 -45 10.5 -70.5t28.5 -38.5t43 -16.5t55 -3.5h17v-109h-408l-45 145h-10q-31 -53 -67 -85.5 t-77 -50t-86.5 -23.5t-93.5 -6q-160 0 -245.5 99t-85.5 306v459q0 45 -8 73t-25 44t-43.5 22t-63.5 6h-4z" />
<glyph unicode="v" horiz-adv-x="1241" d="M0 989v109h635v-109h-86q-31 0 -49.5 -16.5t-18.5 -48.5q0 -25 6.5 -49t12.5 -41l137 -388q25 -65 43.5 -131t28.5 -118q5 24 14 56t18 62.5t16.5 55.5l10.5 35l139 411q10 28 16.5 56.5t6.5 56.5q0 34 -22.5 46.5t-57.5 12.5h-59v109h450v-109h-41q-21 0 -37.5 -5 t-32 -20.5t-30.5 -45t-33 -78.5l-297 -840h-270l-336 891q-11 29 -25.5 48t-34 30t-45 15.5t-59.5 4.5z" />
<glyph unicode="w" horiz-adv-x="1753" d="M-6 989v109h600v-109h-27q-62 0 -92.5 -17.5t-30.5 -68.5q0 -17 5.5 -41t11.5 -47l76 -266q10 -37 19 -76t17 -76t14.5 -70t10.5 -59h6q9 51 24.5 105.5t41.5 130.5l209 583h133l200 -604q25 -74 36 -125.5t18 -89.5h6q5 26 9.5 49t11 48t14.5 54.5t20 67.5l90 299 q8 26 13.5 56t5.5 47q0 52 -33.5 76t-102.5 24h-14v109h469v-109h-26q-30 0 -52 -6t-39 -23.5t-32 -49t-31 -81.5l-264 -829h-221l-224 680l-235 -680h-223l-263 881q-11 32 -24 53t-30 33t-39 17t-52 5h-6z" />
<glyph unicode="x" horiz-adv-x="1323" d="M23 0v109h18q37 0 65 6.5t52.5 21.5t49.5 40t56 63l258 311l-258 330q-43 54 -86 81t-90 27h-27v109h644v-109h-7q-35 0 -57.5 -4.5t-35.5 -12.5t-18 -19t-5 -23q0 -22 11 -42.5t36 -51.5l114 -140l97 117q24 31 37.5 59t13.5 56q0 37 -28.5 49t-76.5 12h-6v109h473v-109 h-18q-30 0 -53.5 -5.5t-47 -20t-48.5 -40t-58 -65.5l-211 -258l301 -383q47 -59 86.5 -83.5t77.5 -24.5h27v-109h-652v109h11q123 0 123 67q0 12 -3 24t-11 28t-23.5 37.5t-40.5 51.5l-117 142l-143 -178q-19 -25 -31 -51t-12 -52q0 -34 29 -51.5t98 -17.5h6v-109h-520z" />
<glyph unicode="y" horiz-adv-x="1186" d="M0 977v121h584v-109q-60 0 -94.5 -15.5t-34.5 -60.5q0 -17 7 -40.5t13 -38.5q18 -43 37.5 -93.5t38 -101t35.5 -97.5t30 -83q15 -39 25 -70.5t16.5 -57t10.5 -47t6 -42.5q2 21 8 46.5t13 49t14 42t10 26.5l135 401q4 10 7.5 23.5t6.5 27.5t4.5 27t1.5 22q0 47 -39 64.5 t-110 17.5v109h461v-109q-31 0 -54.5 -7t-42.5 -24.5t-35 -46t-32 -71.5q-36 -102 -75 -208t-78.5 -212.5t-79 -212t-76.5 -207.5q-36 -99 -68 -174t-67.5 -130t-78.5 -91t-100 -57.5t-132.5 -30.5t-176.5 -9h-35v119q107 0 182 26t127 74t85.5 115t58.5 148l-369 901 q-12 29 -27 46t-32 26t-37 11.5t-43 2.5z" />
<glyph unicode="z" horiz-adv-x="1083" d="M37 0v84l604 874h-299q-23 0 -40 -6.5t-30.5 -23t-24.5 -44t-22 -69.5l-12 -49h-123l25 332h884v-88l-606 -871h361q31 0 52.5 9t37 29t26 51.5t19.5 76.5l12 66h121l-10 -371h-975z" />
<glyph unicode="{" horiz-adv-x="905" d="M61 590v125q50 2 93.5 10t75.5 29t50.5 57.5t18.5 93.5v352q0 144 88.5 221.5t261.5 77.5h195v-108h-80q-44 0 -72 -13t-44.5 -38t-23 -62.5t-6.5 -85.5v-348q0 -93 -53 -152.5t-172 -86.5v-17q118 -29 171.5 -89t53.5 -153v-350q0 -48 6.5 -85.5t23 -63t44.5 -38.5 t72 -13h80v-109h-195q-86 0 -151.5 21t-109.5 60.5t-66.5 95.5t-22.5 126v350q0 59 -18.5 95.5t-50.5 57.5t-75.5 29.5t-93.5 10.5z" />
<glyph unicode="|" d="M498 -492v2048h147v-2048h-147z" />
<glyph unicode="}" horiz-adv-x="905" d="M61 -147h80q44 0 72 13t44.5 38.5t23 63t6.5 85.5v350q0 93 53.5 153t171.5 89v17q-119 27 -172 86.5t-53 152.5v348q0 48 -6.5 85.5t-23 62.5t-44.5 38t-72 13h-80v108h195q173 0 261.5 -77.5t88.5 -221.5v-352q0 -57 18.5 -93.5t50.5 -57.5t75.5 -29t93.5 -10v-125 q-50 -2 -93.5 -10.5t-75.5 -29.5t-50.5 -57.5t-18.5 -95.5v-350q0 -70 -22.5 -126t-66.5 -95.5t-109.5 -60.5t-151.5 -21h-195v109z" />
<glyph unicode="~" d="M94 537q0 190 70.5 288.5t204.5 98.5q79 0 151 -51.5t142.5 -119t121.5 -67.5q50 0 79 58t34 180h152q-10 -210 -77.5 -298.5t-197.5 -88.5q-60 0 -113 29.5t-104 74.5t-99 89t-98 44q-53 0 -84 -56.5t-31 -180.5h-151z" />
<glyph unicode="&#xa1;" horiz-adv-x="782" d="M213 -369l121 996h115l120 -996h-356zM221 946q0 46 13.5 77.5t36.5 50.5t53.5 27.5t64.5 8.5q35 0 66 -8.5t53.5 -27.5t35.5 -50.5t13 -77.5q0 -47 -13 -78.5t-35.5 -50.5t-53.5 -27t-66 -8q-34 0 -64.5 8t-53.5 27t-36.5 50.5t-13.5 78.5z" />
<glyph unicode="&#xa2;" d="M117 733q0 153 34 259.5t94.5 174.5t144 102t181.5 42v151h127v-151q88 -5 156 -23.5t114 -47t69.5 -65t23.5 -77.5q0 -33 -11.5 -64.5t-41 -55.5t-80.5 -39t-131 -15q0 43 -5 84t-16.5 75t-30.5 58.5t-47 36.5v-856q52 1 97.5 14.5t83 35t66 51t46.5 64.5 q26 -15 38.5 -40.5t12.5 -53.5q0 -35 -20.5 -72t-62.5 -68.5t-107 -54t-154 -28.5v-170h-127v170q-103 7 -186.5 41.5t-143 101.5t-92 170.5t-32.5 249.5zM430 735q0 -158 33.5 -255t107.5 -134v828q-33 -15 -59 -46.5t-44.5 -84t-28 -128.5t-9.5 -180z" />
<glyph unicode="&#xa3;" d="M49 709v125h191q-11 25 -22.5 57t-21.5 68t-16 75t-6 78q0 180 117 275.5t338 95.5q110 0 187 -18.5t125.5 -50.5t70.5 -75.5t22 -93.5q0 -72 -65 -119t-191 -47q0 47 -7 96.5t-25 90t-50 66.5t-82 26q-77 0 -122.5 -58.5t-45.5 -179.5q0 -42 6.5 -82.5t16 -77.5 t21.5 -69t24 -57h363v-125l-324 2q7 -23 12.5 -42.5t9.5 -39t6.5 -40t2.5 -46.5q0 -161 -185 -281l7 -10q6 2 18.5 5t29 6t35.5 5t37 2q21 0 40 -2.5t39.5 -8t45 -13t56.5 -17.5q45 -14 81.5 -22t81.5 -8q70 0 122.5 41.5t92.5 109.5v-229q-40 -71 -98 -106t-139 -35 q-31 0 -64.5 4t-65.5 10t-61.5 14t-52.5 17q-50 17 -105.5 31t-97.5 14q-35 0 -65.5 -4.5t-58.5 -12.5t-54.5 -19.5t-54.5 -25.5l-90 -47v184l65 41q32 20 65 48t60 66.5t44.5 88t17.5 111.5q0 59 -12.5 107.5t-32.5 101.5h-236z" />
<glyph unicode="&#xa4;" d="M135 403l119 119q-59 91 -59 207q0 59 16.5 113.5t48.5 99.5l-123 123l103 102l122 -123q45 29 97 45.5t110 16.5q57 0 109.5 -16.5t97.5 -47.5l127 127l103 -104l-125 -127q31 -45 48 -97.5t17 -111.5t-16 -110.5t-45 -96.5l121 -121l-103 -102l-121 121 q-46 -31 -100 -48.5t-113 -17.5q-58 0 -112 16.5t-99 47.5l-118 -119zM334 729q0 -49 18.5 -92t50 -75.5t74.5 -51t92 -18.5q51 0 94.5 18.5t75 51t49 75.5t17.5 92q0 51 -17.5 94.5t-49 76t-75 51t-94.5 18.5q-49 0 -92 -18.5t-74.5 -51t-50 -76t-18.5 -94.5z" />
<glyph unicode="&#xa5;" d="M14 1354v108h586v-108h-15q-62 0 -89 -19t-27 -61q0 -25 8.5 -54.5t23.5 -66.5l78 -195q26 -65 45 -125t27 -102q6 28 21 67t32 83l86 225q13 35 21 60t12.5 44.5t6 34t1.5 27.5q0 42 -28.5 62t-96.5 20h-6v108h426v-108h-6q-26 0 -46 -7t-37.5 -25t-34.5 -49t-38 -79 l-211 -496h268v-120h-286v-119h286v-121h-286v-102q0 -49 13.5 -75t36 -37.5t53.5 -13t65 -1.5h47v-109h-735v109h47q34 0 64 1t52.5 11.5t36.5 34.5t15 69v113h-287v121h287v119h-287v120h252l-242 547q-14 31 -26.5 52t-27.5 33.5t-34 18t-45 5.5h-6z" />
<glyph unicode="&#xa6;" d="M498 328h147v-820h-147v820zM498 737v819h147v-819h-147z" />
<glyph unicode="&#xa7;" horiz-adv-x="1114" d="M133 772q0 69 37 124.5t96 86.5q-35 37 -61.5 98.5t-26.5 145.5q0 78 30 139.5t84 103.5t128 64t162 22q90 0 158.5 -17.5t114.5 -48.5t69.5 -73.5t23.5 -93.5q0 -63 -50 -105t-144 -42q0 45 -8 92.5t-28.5 86.5t-55.5 64t-89 25q-86 0 -138 -50t-52 -143 q0 -49 16.5 -82.5t48 -59.5t76.5 -49t103 -50q108 -52 185.5 -98t127 -94t73 -101t23.5 -119q0 -37 -10.5 -73t-28 -68t-41.5 -58t-51 -43q34 -43 53 -101t19 -118q0 -81 -26 -149t-77.5 -116.5t-129 -75.5t-179.5 -27q-115 0 -191.5 23.5t-122 61t-64.5 84t-19 93.5 q0 40 13.5 70t37.5 50.5t57.5 31t73.5 10.5q0 -68 15.5 -125.5t45.5 -99.5t75.5 -65.5t105.5 -23.5q99 0 154 54t55 145q0 42 -12.5 74.5t-50 66t-106.5 73t-183 95.5q-85 42 -145.5 85t-98 89.5t-55 98t-17.5 112.5zM315 825q0 -42 14.5 -75t48 -63.5t89 -62t137.5 -71.5 q66 -34 115.5 -60.5t89.5 -54.5q11 16 19 38t8 50q0 35 -11 66t-39 62.5t-76.5 64t-123.5 69.5q-68 32 -128 62.5t-110 64.5q-15 -17 -24 -40.5t-9 -49.5z" />
<glyph unicode="&#xa8;" horiz-adv-x="1182" d="M258 1409q0 35 10 59.5t26.5 39.5t38.5 21.5t46 6.5t46 -6.5t39 -21.5t27.5 -39.5t10.5 -59.5q0 -34 -10.5 -58.5t-27.5 -39.5t-39 -22t-46 -7t-46 7t-38.5 22t-26.5 39.5t-10 58.5zM678 1409q0 35 10 59.5t27 39.5t39 21.5t47 6.5q23 0 44.5 -6.5t38.5 -21.5t27.5 -39.5 t10.5 -59.5q0 -34 -10.5 -58.5t-27.5 -39.5t-38.5 -22t-44.5 -7q-25 0 -47 7t-39 22t-27 39.5t-10 58.5z" />
<glyph unicode="&#xa9;" horiz-adv-x="1731" d="M113 731q0 104 27 200.5t75.5 180t117 152.5t152 118t179.5 76t200 27t200.5 -27t180 -76t152.5 -118t118 -152.5t76 -180t27 -200.5t-27 -200t-76 -179.5t-118 -152t-152.5 -117.5t-180 -75.5t-200.5 -26.5t-200 26.5t-179.5 75.5t-152 117.5t-117 152t-75.5 179.5 t-27 200zM225 731q0 -88 23 -169.5t64.5 -152.5t100 -129.5t129.5 -100t152.5 -64.5t169.5 -23q89 0 171 23t153 64.5t129.5 100t100 129.5t64.5 152.5t23 169.5t-23 170t-64.5 153.5t-100 130t-129.5 100t-153 64.5t-171 23q-88 0 -169.5 -23t-152.5 -64.5t-129.5 -100 t-100 -130t-64.5 -153t-23 -170.5zM465 733q0 100 28 183t83.5 143t137 93.5t189.5 33.5q71 0 123.5 -11.5t87.5 -31t52.5 -46t17.5 -57.5q0 -22 -11 -40t-30 -30.5t-44.5 -19t-54.5 -6.5q0 29 -7.5 56.5t-24.5 50t-44.5 36t-68.5 13.5q-72 0 -122.5 -24t-82.5 -71 t-46.5 -115t-14.5 -157q0 -177 69 -272.5t199 -95.5q47 0 87 12t72 32t55.5 45t37.5 50q12 -9 20.5 -25.5t8.5 -38.5q0 -28 -19.5 -57t-58 -53t-96 -39t-134.5 -15q-102 0 -178.5 33t-128 93t-77 144t-25.5 187z" />
<glyph unicode="&#xaa;" horiz-adv-x="860" d="M59 987q0 102 86 150.5t261 56.5l92 4v55q0 29 -3 53.5t-11.5 41.5t-24.5 26.5t-43 9.5q-25 0 -40 -9.5t-23.5 -27t-11.5 -40.5t-3 -50q-106 0 -164.5 20.5t-58.5 68.5q0 35 24 59t65.5 39t97 22t118.5 7q155 0 232 -48.5t77 -164.5v-302q0 -45 19.5 -61t68.5 -16v-90 h-239l-50 100h-14q-18 -22 -41 -42.5t-51.5 -36.5t-63 -25t-75.5 -9q-104 0 -164 53t-60 156zM295 991q0 -54 23 -76t55 -22q63 0 94 39.5t31 101.5v84l-47 -2q-85 -3 -120.5 -34.5t-35.5 -90.5z" />
<glyph unicode="&#xab;" horiz-adv-x="1135" d="M133 500v106l313 357h144l-207 -410l207 -410h-144zM545 500v106l313 357h143l-206 -410l206 -410h-143z" />
<glyph unicode="&#xac;" d="M133 659v146h879v-512h-148v366h-731z" />
<glyph unicode="&#xad;" horiz-adv-x="635" d="M51 451v215h533v-215h-533z" />
<glyph unicode="&#xae;" horiz-adv-x="1731" d="M113 731q0 104 27 200.5t75.5 180t117 152.5t152 118t179.5 76t200 27t200.5 -27t180 -76t152.5 -118t118 -152.5t76 -180t27 -200.5t-27 -200t-76 -179.5t-118 -152t-152.5 -117.5t-180 -75.5t-200.5 -26.5t-200 26.5t-179.5 75.5t-152 117.5t-117 152t-75.5 179.5 t-27 200zM225 731q0 -88 23 -169.5t64.5 -152.5t100 -129.5t129.5 -100t152.5 -64.5t169.5 -23q89 0 171 23t153 64.5t129.5 100t100 129.5t64.5 152.5t23 169.5t-23 170t-64.5 153.5t-100 130t-129.5 100t-153 64.5t-171 23q-88 0 -169.5 -23t-152.5 -64.5t-129.5 -100 t-100 -130t-64.5 -153t-23 -170.5zM477 289v69h27q20 0 38 2.5t32 10t22 21.5t8 38v600q0 24 -8 38.5t-22 22t-32 9.5t-38 2h-27v72h369q352 0 352 -244q0 -49 -16 -86t-42 -64t-59.5 -45.5t-68.5 -29.5l182 -293q10 -17 19.5 -27.5t22.5 -16.5t30.5 -8t42.5 -2v-69h-217 l-226 381h-108v-240q2 -24 10 -38t21.5 -21.5t31 -10t37.5 -2.5h29v-69h-410zM758 748h86q55 0 92 11t59 33t31.5 56t9.5 80q0 45 -11 77t-34.5 51.5t-61 28.5t-91.5 9h-80v-346z" />
<glyph unicode="&#xaf;" horiz-adv-x="940" d="M-10 1556v121h960v-121h-960z" />
<glyph unicode="&#xb0;" horiz-adv-x="819" d="M98 1151q0 65 24.5 121.5t66.5 98.5t98.5 66.5t120.5 24.5q65 0 121.5 -24.5t98.5 -66.5t66.5 -98.5t24.5 -121.5q0 -64 -24.5 -120.5t-66.5 -98.5t-98.5 -66t-121.5 -24q-64 0 -120.5 24t-98.5 66t-66.5 98.5t-24.5 120.5zM240 1151q0 -34 13 -65t36 -54.5t53.5 -37 t65.5 -13.5q36 0 67 13.5t54 37t36 54.5t13 65q0 36 -13 67.5t-36 54.5t-54 36.5t-67 13.5q-35 0 -65.5 -13.5t-53.5 -36.5t-36 -54.5t-13 -67.5z" />
<glyph unicode="&#xb1;" d="M133 0v145h879v-145h-879zM133 659v146h365v366h147v-366h367v-146h-367v-366h-147v366h-365z" />
<glyph unicode="&#xb2;" horiz-adv-x="819" d="M76 586v147l225 189q53 44 87.5 85.5t54.5 81.5t28 80t8 82q0 66 -21.5 103t-74.5 37q-35 0 -56 -18.5t-32.5 -47.5t-15 -65.5t-3.5 -71.5q-34 0 -67 7t-59 21.5t-42 38t-16 56.5q0 37 19 68.5t56 54.5t91.5 36t124.5 13q83 0 142.5 -15.5t98 -44t56.5 -69t18 -90.5 q0 -45 -12.5 -85t-45.5 -84t-90.5 -96t-146.5 -122l-167 -132h327q44 0 62 19.5t24 48.5l10 55h76l-8 -282h-651z" />
<glyph unicode="&#xb3;" horiz-adv-x="819" d="M63 741q0 45 29.5 73t85.5 28q0 -71 44.5 -117.5t117.5 -46.5q86 0 133 43.5t47 124.5q0 78 -51 113.5t-152 35.5h-67v97h67q77 0 119.5 44t42.5 124q0 63 -21.5 97t-74.5 34q-54 0 -82.5 -44t-28.5 -135q-84 0 -131 17.5t-47 70.5q0 82 80 132.5t213 50.5 q140 0 225.5 -54t85.5 -149q0 -90 -45.5 -143t-142.5 -78v-10q106 -16 164.5 -67.5t58.5 -139.5q0 -127 -115.5 -198t-279.5 -71q-134 0 -204.5 46.5t-70.5 121.5z" />
<glyph unicode="&#xb4;" horiz-adv-x="1182" d="M330 1241v27q22 29 49.5 67t55.5 78.5t52.5 81t40.5 74.5h322v-21q-19 -27 -63 -67.5t-98.5 -84.5t-113 -85.5t-106.5 -69.5h-139z" />
<glyph unicode="&#xb5;" horiz-adv-x="1362" d="M166 -223q0 61 3 127.5t7.5 147.5t8.5 181t5 228v637h312v-676q0 -55 7.5 -104t25 -85.5t47.5 -57.5t75 -21q43 0 77.5 23t59 64.5t37.5 100t13 129.5v627h311v-815q0 -94 34 -134t105 -40h15v-109h-179q-105 0 -172.5 49t-93.5 129h-10q-24 -45 -50.5 -82t-59.5 -62.5 t-75 -39.5t-96 -14q-85 0 -145 31.5t-100 88.5q0 -85 7 -157t30 -126t66.5 -87.5t115.5 -42.5q0 -39 -13 -71.5t-37.5 -56.5t-59.5 -37.5t-79 -13.5q-38 0 -73 14t-61.5 45.5t-42 83t-15.5 126.5z" />
<glyph unicode="&#xb6;" horiz-adv-x="1284" d="M82 1192q0 82 17 149t55 115t98 74t147 26h803v-108h-26q-35 0 -65.5 -5t-53.5 -20.5t-36 -44.5t-13 -78v-1273q0 -48 13 -77t36 -44.5t53.5 -20t65.5 -4.5h26v-108h-342v1657h-172v-1657h-342v108h27q35 0 65.5 4.5t53 20t36 44.5t13.5 77v764h-146q-90 0 -150 32.5 t-96 88t-51.5 128t-15.5 152.5z" />
<glyph unicode="&#xb7;" horiz-adv-x="602" d="M133 727q0 47 13 78.5t35.5 50.5t53.5 27t66 8q34 0 64.5 -8t53.5 -27t36.5 -50.5t13.5 -78.5q0 -46 -13.5 -77.5t-36.5 -50.5t-53.5 -27.5t-64.5 -8.5q-35 0 -66 8.5t-53.5 27.5t-35.5 50.5t-13 77.5z" />
<glyph unicode="&#xb8;" horiz-adv-x="682" d="M102 -344q38 -8 75 -12t65 -4q58 0 91.5 20.5t33.5 73.5q0 30 -11.5 49t-32.5 30.5t-49 17t-61 7.5l43 180h117l-21 -88q50 -4 90.5 -18.5t69 -38.5t44 -57.5t15.5 -73.5q0 -54 -21 -97.5t-59 -74t-91.5 -46.5t-118.5 -16q-16 0 -39 1.5t-48 4.5t-49 7.5t-43 9.5v125z " />
<glyph unicode="&#xb9;" horiz-adv-x="819" d="M96 1311q37 9 82.5 29.5t106.5 64.5l92 68h151v-717q0 -26 7.5 -41.5t20.5 -23.5t30.5 -10.5t36.5 -2.5h84v-90h-578v90h104q20 0 36.5 2.5t29.5 10.5t20 23.5t7 41.5v581q-48 -57 -85.5 -92t-74.5 -35q-29 0 -49.5 29.5t-20.5 71.5z" />
<glyph unicode="&#xba;" horiz-adv-x="895" d="M72 1126q0 176 96 261.5t283 85.5q86 0 155 -21.5t117 -64.5t74 -108t26 -153q0 -176 -95.5 -262t-281.5 -86q-178 0 -276 86.5t-98 261.5zM311 1126q0 -121 30.5 -183t107.5 -62q75 0 106 62t31 183t-32 180.5t-108 59.5q-75 0 -105 -59.5t-30 -180.5z" />
<glyph unicode="&#xbb;" horiz-adv-x="1135" d="M133 143l207 410l-207 410h143l314 -357v-106l-314 -357h-143zM545 143l207 410l-207 410h143l313 -357v-106l-313 -357h-143z" />
<glyph unicode="&#xbc;" horiz-adv-x="1720" d="M11 1311q37 9 82.5 29.5t106.5 64.5l92 68h151v-717q0 -26 7.5 -41.5t20.5 -23.5t30.5 -10.5t36.5 -2.5h84v-90h-578v90h104q20 0 36.5 2.5t29.5 10.5t20 23.5t7 41.5v581q-48 -57 -85.5 -92t-74.5 -35q-29 0 -49.5 29.5t-20.5 71.5zM418 0l731 1462h158l-729 -1462h-160 zM930 240v82l407 564h185v-537h159v-109h-159v-71q0 -26 7 -41.5t19 -23.5t27.5 -10.5t32.5 -2.5h41v-90h-471v90h57q17 0 32 2.5t26.5 10.5t18.5 23.5t7 41.5v71h-389zM1065 349h254v246q0 32 2.5 63.5t7.5 69.5q-8 -17 -17 -33.5t-14 -24.5z" />
<glyph unicode="&#xbd;" horiz-adv-x="1720" d="M11 1311q37 9 82.5 29.5t106.5 64.5l92 68h151v-717q0 -26 7.5 -41.5t20.5 -23.5t30.5 -10.5t36.5 -2.5h84v-90h-578v90h104q20 0 36.5 2.5t29.5 10.5t20 23.5t7 41.5v581q-48 -57 -85.5 -92t-74.5 -35q-29 0 -49.5 29.5t-20.5 71.5zM377 0l731 1462h158l-729 -1462h-160 zM1006 1v147l225 189q53 44 87.5 85.5t54.5 81.5t28 80t8 82q0 66 -21.5 103t-74.5 37q-35 0 -56 -18.5t-32.5 -47.5t-15 -65.5t-3.5 -71.5q-34 0 -67 7t-59 21.5t-42 38t-16 56.5q0 37 19 68.5t56 54.5t91.5 36t124.5 13q83 0 142.5 -15.5t98 -44t56.5 -69t18 -90.5 q0 -45 -12.5 -85t-45.5 -84t-90.5 -96t-146.5 -122l-167 -132h327q44 0 62 19.5t24 48.5l10 55h76l-8 -282h-651z" />
<glyph unicode="&#xbe;" horiz-adv-x="1720" d="M63 741q0 45 29.5 73t85.5 28q0 -71 44.5 -117.5t117.5 -46.5q86 0 133 43.5t47 124.5q0 78 -51 113.5t-152 35.5h-67v97h67q77 0 119.5 44t42.5 124q0 63 -21.5 97t-74.5 34q-54 0 -82.5 -44t-28.5 -135q-84 0 -131 17.5t-47 70.5q0 82 80 132.5t213 50.5 q140 0 225.5 -54t85.5 -149q0 -90 -45.5 -143t-142.5 -78v-10q106 -16 164.5 -67.5t58.5 -139.5q0 -127 -115.5 -198t-279.5 -71q-134 0 -204.5 46.5t-70.5 121.5zM459 0l731 1462h158l-729 -1462h-160zM930 240v82l407 564h185v-537h159v-109h-159v-71q0 -26 7 -41.5 t19 -23.5t27.5 -10.5t32.5 -2.5h41v-90h-471v90h57q17 0 32 2.5t26.5 10.5t18.5 23.5t7 41.5v71h-389zM1065 349h254v246q0 32 2.5 63.5t7.5 69.5q-8 -17 -17 -33.5t-14 -24.5z" />
<glyph unicode="&#xbf;" horiz-adv-x="1126" d="M113 -14q0 82 25.5 147t76 119t127 99t178.5 87l41 187h125l41 -252q-87 -35 -143.5 -82.5t-88.5 -102t-44.5 -114.5t-12.5 -121q0 -49 9 -89.5t28.5 -70t50 -45.5t72.5 -16q46 0 77.5 20.5t50.5 56t27.5 82t8.5 99.5q63 0 116 -9t91.5 -27t60 -45t21.5 -63 q0 -50 -26 -93t-79.5 -75t-136 -50.5t-195.5 -18.5q-108 0 -200 25.5t-158.5 74t-104.5 118.5t-38 159zM459 944q0 46 13.5 77.5t36.5 50.5t53.5 27.5t64.5 8.5q35 0 66 -8.5t53.5 -27.5t35.5 -50.5t13 -77.5q0 -47 -13 -78.5t-35.5 -50.5t-53.5 -27t-66 -8q-34 0 -64.5 8 t-53.5 27t-36.5 50.5t-13.5 78.5z" />
<glyph unicode="&#xc0;" horiz-adv-x="1542" d="M8 0v109h25q27 0 49.5 6t42 22.5t37 45.5t35.5 75l444 1204h281l428 -1206q15 -43 31.5 -71.5t36 -45t41.5 -23.5t46 -7h37v-109h-676v109h80q15 0 31 4.5t28.5 14t20.5 24.5t8 36q0 25 -6 48t-12 40l-72 205h-498l-59 -176q-8 -25 -16.5 -58.5t-8.5 -58.5q0 -20 8 -35 t21 -24.5t29.5 -14.5t34.5 -5h86v-109h-533zM377 1886v21h321q16 -34 41 -74.5t52.5 -81t55.5 -78.5t50 -67v-27h-139q-48 28 -106.5 69.5t-113 85.5t-98.5 84.5t-63 67.5zM489 606h414l-108 336q-11 35 -22.5 73.5t-23 78.5t-22 79.5t-18.5 75.5q-9 -31 -21 -68t-25.5 -76 l-27 -78t-25.5 -75z" />
<glyph unicode="&#xc1;" horiz-adv-x="1542" d="M8 0v109h25q27 0 49.5 6t42 22.5t37 45.5t35.5 75l444 1204h281l428 -1206q15 -43 31.5 -71.5t36 -45t41.5 -23.5t46 -7h37v-109h-676v109h80q15 0 31 4.5t28.5 14t20.5 24.5t8 36q0 25 -6 48t-12 40l-72 205h-498l-59 -176q-8 -25 -16.5 -58.5t-8.5 -58.5q0 -20 8 -35 t21 -24.5t29.5 -14.5t34.5 -5h86v-109h-533zM489 606h414l-108 336q-11 35 -22.5 73.5t-23 78.5t-22 79.5t-18.5 75.5q-9 -31 -21 -68t-25.5 -76l-27 -78t-25.5 -75zM641 1579v27q22 29 49.5 67t55.5 78.5t52.5 81t40.5 74.5h322v-21q-19 -27 -63 -67.5t-98.5 -84.5 t-113 -85.5t-106.5 -69.5h-139z" />
<glyph unicode="&#xc2;" horiz-adv-x="1542" d="M8 0v109h25q27 0 49.5 6t42 22.5t37 45.5t35.5 75l444 1204h281l428 -1206q15 -43 31.5 -71.5t36 -45t41.5 -23.5t46 -7h37v-109h-676v109h80q15 0 31 4.5t28.5 14t20.5 24.5t8 36q0 25 -6 48t-12 40l-72 205h-498l-59 -176q-8 -25 -16.5 -58.5t-8.5 -58.5q0 -20 8 -35 t21 -24.5t29.5 -14.5t34.5 -5h86v-109h-533zM415 1579v27q24 29 56.5 67t64.5 78.5t60.5 81t44.5 74.5h276q16 -34 44.5 -74.5t60.5 -81t64 -78.5t56 -67v-27h-141q-21 17 -50 40t-60 48t-60.5 50t-52.5 46q-23 -21 -52.5 -46t-60 -50t-59 -48t-49.5 -40h-142zM489 606h414 l-108 336q-11 35 -22.5 73.5t-23 78.5t-22 79.5t-18.5 75.5q-9 -31 -21 -68t-25.5 -76l-27 -78t-25.5 -75z" />
<glyph unicode="&#xc3;" horiz-adv-x="1542" d="M8 0v109h25q27 0 49.5 6t42 22.5t37 45.5t35.5 75l444 1204h281l428 -1206q15 -43 31.5 -71.5t36 -45t41.5 -23.5t46 -7h37v-109h-676v109h80q15 0 31 4.5t28.5 14t20.5 24.5t8 36q0 25 -6 48t-12 40l-72 205h-498l-59 -176q-8 -25 -16.5 -58.5t-8.5 -58.5q0 -20 8 -35 t21 -24.5t29.5 -14.5t34.5 -5h86v-109h-533zM364 1600q3 62 23.5 117t54 96.5t79.5 65.5t101 24t99.5 -20t83 -44.5t72 -44.5t65.5 -20q22 0 39.5 9t30 24t20 34.5t10.5 40.5h133q-3 -62 -23 -117t-53.5 -96.5t-79 -65.5t-100.5 -24t-99.5 20t-83 44.5t-72 44.5t-66.5 20 q-23 0 -40.5 -9t-30 -24t-20 -34.5t-10.5 -40.5h-133zM489 606h414l-108 336q-11 35 -22.5 73.5t-23 78.5t-22 79.5t-18.5 75.5q-9 -31 -21 -68t-25.5 -76l-27 -78t-25.5 -75z" />
<glyph unicode="&#xc4;" horiz-adv-x="1542" d="M8 0v109h25q27 0 49.5 6t42 22.5t37 45.5t35.5 75l444 1204h281l428 -1206q15 -43 31.5 -71.5t36 -45t41.5 -23.5t46 -7h37v-109h-676v109h80q15 0 31 4.5t28.5 14t20.5 24.5t8 36q0 25 -6 48t-12 40l-72 205h-498l-59 -176q-8 -25 -16.5 -58.5t-8.5 -58.5q0 -20 8 -35 t21 -24.5t29.5 -14.5t34.5 -5h86v-109h-533zM436 1747q0 35 10 59.5t26.5 39.5t38.5 21.5t46 6.5t46 -6.5t39 -21.5t27.5 -39.5t10.5 -59.5q0 -34 -10.5 -58.5t-27.5 -39.5t-39 -22t-46 -7t-46 7t-38.5 22t-26.5 39.5t-10 58.5zM489 606h414l-108 336q-11 35 -22.5 73.5 t-23 78.5t-22 79.5t-18.5 75.5q-9 -31 -21 -68t-25.5 -76l-27 -78t-25.5 -75zM856 1747q0 35 10 59.5t27 39.5t39 21.5t47 6.5q23 0 44.5 -6.5t38.5 -21.5t27.5 -39.5t10.5 -59.5q0 -34 -10.5 -58.5t-27.5 -39.5t-38.5 -22t-44.5 -7q-25 0 -47 7t-39 22t-27 39.5t-10 58.5z " />
<glyph unicode="&#xc5;" horiz-adv-x="1542" d="M8 0v109h25q27 0 49.5 6t42 22.5t37 45.5t35.5 75l444 1204h281l428 -1206q15 -43 31.5 -71.5t36 -45t41.5 -23.5t46 -7h37v-109h-676v109h80q15 0 31 4.5t28.5 14t20.5 24.5t8 36q0 25 -6 48t-12 40l-72 205h-498l-59 -176q-8 -25 -16.5 -58.5t-8.5 -58.5q0 -20 8 -35 t21 -24.5t29.5 -14.5t34.5 -5h86v-109h-533zM489 606h414l-108 336q-11 35 -22.5 73.5t-23 78.5t-22 79.5t-18.5 75.5q-9 -31 -21 -68t-25.5 -76l-27 -78t-25.5 -75zM532 1573q0 54 19 96t52.5 70t78.5 42.5t96 14.5t96 -14.5t78.5 -42.5t52.5 -70t19 -96q0 -55 -19 -96.5 t-52.5 -69.5t-78.5 -42.5t-96 -14.5t-96 14.5t-78.5 42.5t-52.5 69.5t-19 96.5zM657 1573q0 -30 9.5 -51t26 -34.5t38.5 -19.5t47 -6t47 6t38.5 19.5t26 34.5t9.5 51t-9.5 51t-26 34t-38.5 19t-47 6t-47 -6t-38.5 -19t-26 -34t-9.5 -51z" />
<glyph unicode="&#xc6;" horiz-adv-x="2034" d="M0 0v109h25q53 0 95 38.5t87 120.5l575 1075l-135 11v108h1243l8 -377h-143l-10 97q-8 75 -38 115t-93 40h-344v-512h485v-123h-485v-577h409q31 0 53 11.5t38 32.5t25.5 49.5t14.5 62.5l17 96h141l-14 -377h-1200v109h86q56 0 80 34.5t24 87.5v238h-471l-86 -172 q-17 -32 -25 -61t-8 -48q0 -42 31.5 -60.5t91.5 -18.5h35v-109h-512zM539 592h405v745h-20z" />
<glyph unicode="&#xc7;" horiz-adv-x="1368" d="M113 733q0 166 45 304t133.5 237t221 154t306.5 55q118 0 205.5 -18.5t145.5 -50.5t87 -75.5t29 -93.5q0 -38 -16.5 -70.5t-49 -56.5t-80.5 -37.5t-110 -13.5q0 51 -11 101.5t-37.5 91.5t-69.5 66.5t-107 25.5q-97 0 -164 -41t-107.5 -120t-58.5 -194.5t-18 -263.5 t22 -259t71 -184.5t127.5 -110t192.5 -36.5q75 0 133.5 17.5t104.5 45.5t80.5 63t60.5 69q16 -12 25.5 -37t9.5 -51q0 -43 -23 -90.5t-77 -87.5t-143 -66t-220 -26q-178 0 -311 54t-221 153t-132 238t-44 308zM493 -344q38 -8 75 -12t65 -4q58 0 91.5 20.5t33.5 73.5 q0 30 -11.5 49t-32.5 30.5t-49 17t-61 7.5l43 180h117l-21 -88q50 -4 90.5 -18.5t69 -38.5t44 -57.5t15.5 -73.5q0 -54 -21 -97.5t-59 -74t-91.5 -46.5t-118.5 -16q-16 0 -39 1.5t-48 4.5t-49 7.5t-43 9.5v125z" />
<glyph unicode="&#xc8;" horiz-adv-x="1337" d="M57 0v109h86q22 0 41 4t33.5 16.5t22.5 37t8 64.5v990q0 44 -8 70t-22 40t-33 18.5t-42 4.5h-86v108h1137l8 -377h-143l-10 97q-8 75 -38 115t-93 40h-345v-512h486v-123h-486v-577h410q31 0 53 11.5t38 32.5t25.5 49.5t14.5 62.5l16 96h142l-15 -377h-1200zM308 1886v21 h321q16 -34 41 -74.5t52.5 -81t55.5 -78.5t50 -67v-27h-139q-48 28 -106.5 69.5t-113 85.5t-98.5 84.5t-63 67.5z" />
<glyph unicode="&#xc9;" horiz-adv-x="1337" d="M57 0v109h86q22 0 41 4t33.5 16.5t22.5 37t8 64.5v990q0 44 -8 70t-22 40t-33 18.5t-42 4.5h-86v108h1137l8 -377h-143l-10 97q-8 75 -38 115t-93 40h-345v-512h486v-123h-486v-577h410q31 0 53 11.5t38 32.5t25.5 49.5t14.5 62.5l16 96h142l-15 -377h-1200zM523 1579v27 q22 29 49.5 67t55.5 78.5t52.5 81t40.5 74.5h322v-21q-19 -27 -63 -67.5t-98.5 -84.5t-113 -85.5t-106.5 -69.5h-139z" />
<glyph unicode="&#xca;" horiz-adv-x="1337" d="M57 0v109h86q22 0 41 4t33.5 16.5t22.5 37t8 64.5v990q0 44 -8 70t-22 40t-33 18.5t-42 4.5h-86v108h1137l8 -377h-143l-10 97q-8 75 -38 115t-93 40h-345v-512h486v-123h-486v-577h410q31 0 53 11.5t38 32.5t25.5 49.5t14.5 62.5l16 96h142l-15 -377h-1200zM288 1579v27 q24 29 56.5 67t64.5 78.5t60.5 81t44.5 74.5h276q16 -34 44.5 -74.5t60.5 -81t64 -78.5t56 -67v-27h-141q-21 17 -50 40t-60 48t-60.5 50t-52.5 46q-23 -21 -52.5 -46t-60 -50t-59 -48t-49.5 -40h-142z" />
<glyph unicode="&#xcb;" horiz-adv-x="1337" d="M57 0v109h86q22 0 41 4t33.5 16.5t22.5 37t8 64.5v990q0 44 -8 70t-22 40t-33 18.5t-42 4.5h-86v108h1137l8 -377h-143l-10 97q-8 75 -38 115t-93 40h-345v-512h486v-123h-486v-577h410q31 0 53 11.5t38 32.5t25.5 49.5t14.5 62.5l16 96h142l-15 -377h-1200zM356 1747 q0 35 10 59.5t26.5 39.5t38.5 21.5t46 6.5t46 -6.5t39 -21.5t27.5 -39.5t10.5 -59.5q0 -34 -10.5 -58.5t-27.5 -39.5t-39 -22t-46 -7t-46 7t-38.5 22t-26.5 39.5t-10 58.5zM776 1747q0 35 10 59.5t27 39.5t39 21.5t47 6.5q23 0 44.5 -6.5t38.5 -21.5t27.5 -39.5t10.5 -59.5 q0 -34 -10.5 -58.5t-27.5 -39.5t-38.5 -22t-44.5 -7q-25 0 -47 7t-39 22t-27 39.5t-10 58.5z" />
<glyph unicode="&#xcc;" horiz-adv-x="821" d="M48 1886v21h321q16 -34 41 -74.5t52.5 -81t55.5 -78.5t50 -67v-27h-139q-48 28 -106.5 69.5t-113 85.5t-98.5 84.5t-63 67.5zM57 0v109h86q23 0 42 4.5t33 18.5t22 40t8 70v978q0 44 -8 70t-22 40t-33 18.5t-42 4.5h-86v109h707v-109h-86q-22 0 -41.5 -4.5t-33.5 -18.5 t-22 -40t-8 -70v-978q0 -44 8 -70t22 -40t33.5 -18.5t41.5 -4.5h86v-109h-707z" />
<glyph unicode="&#xcd;" horiz-adv-x="821" d="M57 0v109h86q23 0 42 4.5t33 18.5t22 40t8 70v978q0 44 -8 70t-22 40t-33 18.5t-42 4.5h-86v109h707v-109h-86q-22 0 -41.5 -4.5t-33.5 -18.5t-22 -40t-8 -70v-978q0 -44 8 -70t22 -40t33.5 -18.5t41.5 -4.5h86v-109h-707zM253 1579v27q22 29 49.5 67t55.5 78.5t52.5 81 t40.5 74.5h322v-21q-19 -27 -63 -67.5t-98.5 -84.5t-113 -85.5t-106.5 -69.5h-139z" />
<glyph unicode="&#xce;" horiz-adv-x="821" d="M48 1579v27q24 29 56.5 67t64.5 78.5t60.5 81t44.5 74.5h276q16 -34 44.5 -74.5t60.5 -81t64 -78.5t56 -67v-27h-141q-21 17 -50 40t-60 48t-60.5 50t-52.5 46q-23 -21 -52.5 -46t-60 -50t-59 -48t-49.5 -40h-142zM57 0v109h86q23 0 42 4.5t33 18.5t22 40t8 70v978 q0 44 -8 70t-22 40t-33 18.5t-42 4.5h-86v109h707v-109h-86q-22 0 -41.5 -4.5t-33.5 -18.5t-22 -40t-8 -70v-978q0 -44 8 -70t22 -40t33.5 -18.5t41.5 -4.5h86v-109h-707z" />
<glyph unicode="&#xcf;" horiz-adv-x="821" d="M57 0v109h86q23 0 42 4.5t33 18.5t22 40t8 70v978q0 44 -8 70t-22 40t-33 18.5t-42 4.5h-86v109h707v-109h-86q-22 0 -41.5 -4.5t-33.5 -18.5t-22 -40t-8 -70v-978q0 -44 8 -70t22 -40t33.5 -18.5t41.5 -4.5h86v-109h-707zM79 1747q0 35 10 59.5t26.5 39.5t38.5 21.5 t46 6.5t46 -6.5t39 -21.5t27.5 -39.5t10.5 -59.5q0 -34 -10.5 -58.5t-27.5 -39.5t-39 -22t-46 -7t-46 7t-38.5 22t-26.5 39.5t-10 58.5zM499 1747q0 35 10 59.5t27 39.5t39 21.5t47 6.5q23 0 44.5 -6.5t38.5 -21.5t27.5 -39.5t10.5 -59.5q0 -34 -10.5 -58.5t-27.5 -39.5 t-38.5 -22t-44.5 -7q-25 0 -47 7t-39 22t-27 39.5t-10 58.5z" />
<glyph unicode="&#xd0;" horiz-adv-x="1571" d="M57 0v109h86q23 0 42 4.5t33 18.5t22 40t8 70v460h-170v125h170v402q0 41 -8 65.5t-22.5 37.5t-33.5 17.5t-41 4.5h-86v108h676q170 0 304.5 -44.5t228 -133t143 -220.5t49.5 -306q0 -168 -46 -307.5t-137.5 -239.5t-227 -155.5t-314.5 -55.5h-676zM571 127h115 q105 0 185 43.5t133.5 125.5t80.5 198.5t27 263.5q0 293 -107.5 436t-316.5 143h-117v-510h256v-125h-256v-575z" />
<glyph unicode="&#xd1;" horiz-adv-x="1614" d="M57 0v109h86q22 0 41 4.5t33.5 18.5t22.5 40t8 70v987q0 41 -8.5 65.5t-23 37.5t-33.5 17.5t-40 4.5h-86v108h455l723 -1022v789q0 41 -8.5 65.5t-23 37.5t-33.5 17.5t-40 4.5h-86v108h535v-108h-86q-21 0 -40 -4.5t-33.5 -18.5t-22.5 -40t-8 -70v-1221h-189l-799 1128 v-886q0 -44 8.5 -70t22.5 -40t33.5 -18.5t40.5 -4.5h86v-109h-535zM420 1600q3 62 23.5 117t54 96.5t79.5 65.5t101 24t99.5 -20t83 -44.5t72 -44.5t65.5 -20q22 0 39.5 9t30 24t20 34.5t10.5 40.5h133q-3 -62 -23 -117t-53.5 -96.5t-79 -65.5t-100.5 -24t-99.5 20t-83 44.5 t-72 44.5t-66.5 20q-23 0 -40.5 -9t-30 -24t-20 -34.5t-10.5 -40.5h-133z" />
<glyph unicode="&#xd2;" horiz-adv-x="1612" d="M113 735q0 170 43 308.5t129.5 236.5t217 151.5t306.5 53.5q166 0 294.5 -53.5t216.5 -152t133.5 -237t45.5 -309.5q0 -169 -45.5 -308t-134 -238t-217 -153t-295.5 -54q-175 0 -305.5 54t-216.5 153t-129 238.5t-43 309.5zM432 1886v21h321q16 -34 41 -74.5t52.5 -81 t55.5 -78.5t50 -67v-27h-139q-48 28 -106.5 69.5t-113 85.5t-98.5 84.5t-63 67.5zM457 733q0 -147 19 -262t61 -194.5t108.5 -121.5t161.5 -42q96 0 162.5 42t107.5 121.5t59.5 194.5t18.5 262t-18.5 262t-59.5 194.5t-107 121t-161 41.5q-96 0 -163 -41.5t-109 -121 t-61 -194.5t-19 -262z" />
<glyph unicode="&#xd3;" horiz-adv-x="1612" d="M113 735q0 170 43 308.5t129.5 236.5t217 151.5t306.5 53.5q166 0 294.5 -53.5t216.5 -152t133.5 -237t45.5 -309.5q0 -169 -45.5 -308t-134 -238t-217 -153t-295.5 -54q-175 0 -305.5 54t-216.5 153t-129 238.5t-43 309.5zM457 733q0 -147 19 -262t61 -194.5 t108.5 -121.5t161.5 -42q96 0 162.5 42t107.5 121.5t59.5 194.5t18.5 262t-18.5 262t-59.5 194.5t-107 121t-161 41.5q-96 0 -163 -41.5t-109 -121t-61 -194.5t-19 -262zM666 1579v27q22 29 49.5 67t55.5 78.5t52.5 81t40.5 74.5h322v-21q-19 -27 -63 -67.5t-98.5 -84.5 t-113 -85.5t-106.5 -69.5h-139z" />
<glyph unicode="&#xd4;" horiz-adv-x="1612" d="M113 735q0 170 43 308.5t129.5 236.5t217 151.5t306.5 53.5q166 0 294.5 -53.5t216.5 -152t133.5 -237t45.5 -309.5q0 -169 -45.5 -308t-134 -238t-217 -153t-295.5 -54q-175 0 -305.5 54t-216.5 153t-129 238.5t-43 309.5zM440 1579v27q24 29 56.5 67t64.5 78.5t60.5 81 t44.5 74.5h276q16 -34 44.5 -74.5t60.5 -81t64 -78.5t56 -67v-27h-141q-21 17 -50 40t-60 48t-60.5 50t-52.5 46q-23 -21 -52.5 -46t-60 -50t-59 -48t-49.5 -40h-142zM457 733q0 -147 19 -262t61 -194.5t108.5 -121.5t161.5 -42q96 0 162.5 42t107.5 121.5t59.5 194.5 t18.5 262t-18.5 262t-59.5 194.5t-107 121t-161 41.5q-96 0 -163 -41.5t-109 -121t-61 -194.5t-19 -262z" />
<glyph unicode="&#xd5;" horiz-adv-x="1612" d="M113 735q0 170 43 308.5t129.5 236.5t217 151.5t306.5 53.5q166 0 294.5 -53.5t216.5 -152t133.5 -237t45.5 -309.5q0 -169 -45.5 -308t-134 -238t-217 -153t-295.5 -54q-175 0 -305.5 54t-216.5 153t-129 238.5t-43 309.5zM397 1600q3 62 23.5 117t54 96.5t79.5 65.5 t101 24t99.5 -20t83 -44.5t72 -44.5t65.5 -20q22 0 39.5 9t30 24t20 34.5t10.5 40.5h133q-3 -62 -23 -117t-53.5 -96.5t-79 -65.5t-100.5 -24t-99.5 20t-83 44.5t-72 44.5t-66.5 20q-23 0 -40.5 -9t-30 -24t-20 -34.5t-10.5 -40.5h-133zM457 733q0 -147 19 -262t61 -194.5 t108.5 -121.5t161.5 -42q96 0 162.5 42t107.5 121.5t59.5 194.5t18.5 262t-18.5 262t-59.5 194.5t-107 121t-161 41.5q-96 0 -163 -41.5t-109 -121t-61 -194.5t-19 -262z" />
<glyph unicode="&#xd6;" horiz-adv-x="1612" d="M113 735q0 170 43 308.5t129.5 236.5t217 151.5t306.5 53.5q166 0 294.5 -53.5t216.5 -152t133.5 -237t45.5 -309.5q0 -169 -45.5 -308t-134 -238t-217 -153t-295.5 -54q-175 0 -305.5 54t-216.5 153t-129 238.5t-43 309.5zM457 733q0 -147 19 -262t61 -194.5 t108.5 -121.5t161.5 -42q96 0 162.5 42t107.5 121.5t59.5 194.5t18.5 262t-18.5 262t-59.5 194.5t-107 121t-161 41.5q-96 0 -163 -41.5t-109 -121t-61 -194.5t-19 -262zM463 1747q0 35 10 59.5t26.5 39.5t38.5 21.5t46 6.5t46 -6.5t39 -21.5t27.5 -39.5t10.5 -59.5 q0 -34 -10.5 -58.5t-27.5 -39.5t-39 -22t-46 -7t-46 7t-38.5 22t-26.5 39.5t-10 58.5zM883 1747q0 35 10 59.5t27 39.5t39 21.5t47 6.5q23 0 44.5 -6.5t38.5 -21.5t27.5 -39.5t10.5 -59.5q0 -34 -10.5 -58.5t-27.5 -39.5t-38.5 -22t-44.5 -7q-25 0 -47 7t-39 22t-27 39.5 t-10 58.5z" />
<glyph unicode="&#xd7;" d="M166 432l301 303l-301 301l104 103l301 -301l301 303l105 -105l-303 -303l303 -303l-103 -102l-303 303l-301 -303z" />
<glyph unicode="&#xd8;" horiz-adv-x="1612" d="M113 735q0 170 43 308.5t129.5 236.5t217 151.5t306.5 53.5q85 0 160 -15t141 -43l64 119h143l-96 -178q136 -96 207 -258t71 -377q0 -169 -45.5 -308t-134 -238t-217 -153t-295.5 -54q-173 0 -303 53l-62 -115h-145l94 174q-140 96 -209 260.5t-69 382.5zM457 733 q0 -128 14 -230t45 -179l506 942q-38 42 -91.5 64t-121.5 22q-96 0 -163 -41.5t-109 -121t-61 -194.5t-19 -262zM592 197q40 -42 93 -63t122 -21q96 0 162.5 42t107.5 121.5t59.5 194.5t18.5 262q0 127 -14 228.5t-43 179.5z" />
<glyph unicode="&#xd9;" horiz-adv-x="1530" d="M33 1354v108h706v-108h-86q-21 0 -40 -4.5t-33.5 -18.5t-22.5 -40t-8 -70v-791q0 -86 21.5 -144.5t61.5 -94t96 -51t126 -15.5q68 0 123 17.5t93.5 54.5t59.5 94t21 135v803q0 41 -8 65.5t-22.5 37.5t-33.5 17.5t-40 4.5h-86v108h536v-108h-88q-21 0 -40 -4.5 t-33.5 -18.5t-22.5 -40t-8 -70v-799q0 -103 -29.5 -185t-92 -139t-159.5 -87.5t-231 -30.5t-239.5 25.5t-178.5 81.5t-111.5 144.5t-38.5 214.5v783q0 41 -8.5 65.5t-23 37.5t-33 17.5t-39.5 4.5h-88zM432 1886v21h321q16 -34 41 -74.5t52.5 -81t55.5 -78.5t50 -67v-27h-139 q-48 28 -106.5 69.5t-113 85.5t-98.5 84.5t-63 67.5z" />
<glyph unicode="&#xda;" horiz-adv-x="1530" d="M33 1354v108h706v-108h-86q-21 0 -40 -4.5t-33.5 -18.5t-22.5 -40t-8 -70v-791q0 -86 21.5 -144.5t61.5 -94t96 -51t126 -15.5q68 0 123 17.5t93.5 54.5t59.5 94t21 135v803q0 41 -8 65.5t-22.5 37.5t-33.5 17.5t-40 4.5h-86v108h536v-108h-88q-21 0 -40 -4.5 t-33.5 -18.5t-22.5 -40t-8 -70v-799q0 -103 -29.5 -185t-92 -139t-159.5 -87.5t-231 -30.5t-239.5 25.5t-178.5 81.5t-111.5 144.5t-38.5 214.5v783q0 41 -8.5 65.5t-23 37.5t-33 17.5t-39.5 4.5h-88zM643 1579v27q22 29 49.5 67t55.5 78.5t52.5 81t40.5 74.5h322v-21 q-19 -27 -63 -67.5t-98.5 -84.5t-113 -85.5t-106.5 -69.5h-139z" />
<glyph unicode="&#xdb;" horiz-adv-x="1530" d="M33 1354v108h706v-108h-86q-21 0 -40 -4.5t-33.5 -18.5t-22.5 -40t-8 -70v-791q0 -86 21.5 -144.5t61.5 -94t96 -51t126 -15.5q68 0 123 17.5t93.5 54.5t59.5 94t21 135v803q0 41 -8 65.5t-22.5 37.5t-33.5 17.5t-40 4.5h-86v108h536v-108h-88q-21 0 -40 -4.5 t-33.5 -18.5t-22.5 -40t-8 -70v-799q0 -103 -29.5 -185t-92 -139t-159.5 -87.5t-231 -30.5t-239.5 25.5t-178.5 81.5t-111.5 144.5t-38.5 214.5v783q0 41 -8.5 65.5t-23 37.5t-33 17.5t-39.5 4.5h-88zM454 1579v27q24 29 56.5 67t64.5 78.5t60.5 81t44.5 74.5h276 q16 -34 44.5 -74.5t60.5 -81t64 -78.5t56 -67v-27h-141q-21 17 -50 40t-60 48t-60.5 50t-52.5 46q-23 -21 -52.5 -46t-60 -50t-59 -48t-49.5 -40h-142z" />
<glyph unicode="&#xdc;" horiz-adv-x="1530" d="M33 1354v108h706v-108h-86q-21 0 -40 -4.5t-33.5 -18.5t-22.5 -40t-8 -70v-791q0 -86 21.5 -144.5t61.5 -94t96 -51t126 -15.5q68 0 123 17.5t93.5 54.5t59.5 94t21 135v803q0 41 -8 65.5t-22.5 37.5t-33.5 17.5t-40 4.5h-86v108h536v-108h-88q-21 0 -40 -4.5 t-33.5 -18.5t-22.5 -40t-8 -70v-799q0 -103 -29.5 -185t-92 -139t-159.5 -87.5t-231 -30.5t-239.5 25.5t-178.5 81.5t-111.5 144.5t-38.5 214.5v783q0 41 -8.5 65.5t-23 37.5t-33 17.5t-39.5 4.5h-88zM494 1747q0 35 10 59.5t26.5 39.5t38.5 21.5t46 6.5t46 -6.5t39 -21.5 t27.5 -39.5t10.5 -59.5q0 -34 -10.5 -58.5t-27.5 -39.5t-39 -22t-46 -7t-46 7t-38.5 22t-26.5 39.5t-10 58.5zM914 1747q0 35 10 59.5t27 39.5t39 21.5t47 6.5q23 0 44.5 -6.5t38.5 -21.5t27.5 -39.5t10.5 -59.5q0 -34 -10.5 -58.5t-27.5 -39.5t-38.5 -22t-44.5 -7 q-25 0 -47 7t-39 22t-27 39.5t-10 58.5z" />
<glyph unicode="&#xdd;" horiz-adv-x="1419" d="M0 1354v108h686v-108h-35q-62 0 -92.5 -25t-30.5 -67q0 -26 9.5 -56.5t21.5 -56.5l152 -301q32 -65 52.5 -115t37.5 -98q21 54 48.5 117.5t61.5 132.5l119 245q22 45 28.5 75.5t6.5 47.5q0 53 -33.5 77t-101.5 24h-47v108h536v-108h-39q-26 0 -44.5 -7t-35 -25t-34 -49 t-41.5 -79l-348 -678v-280q0 -45 9 -70t24.5 -38t36 -16t44.5 -3h101v-109h-756v109h96q25 0 46.5 3t37.5 15.5t25.5 37.5t9.5 68v285l-379 727q-15 30 -28.5 51t-29.5 33.5t-36.5 18.5t-50.5 6h-27zM602 1579v27q22 29 49.5 67t55.5 78.5t52.5 81t40.5 74.5h322v-21 q-19 -27 -63 -67.5t-98.5 -84.5t-113 -85.5t-106.5 -69.5h-139z" />
<glyph unicode="&#xde;" horiz-adv-x="1307" d="M57 0v109h86q23 0 42 4.5t33 18.5t22 40t8 70v979q0 44 -8 70t-22 40t-33 18.5t-42 4.5h-86v108h707v-108h-84q-21 0 -41 -4t-35 -17t-24 -37t-9 -65v-37h115q142 -2 247 -32.5t174.5 -86t103.5 -135t34 -180.5q0 -92 -32 -177t-104 -150t-187 -103.5t-281 -38.5h-70v-60 q2 -40 11 -64.5t23.5 -37t34 -16.5t40.5 -4h84v-109h-707zM571 410h50q76 0 129 19t86.5 60t49 106t15.5 157q0 82 -13.5 142.5t-43 100t-77 59t-116.5 19.5h-80v-663z" />
<glyph unicode="&#xdf;" horiz-adv-x="1446" d="M12 0v109h88q22 0 41 4.5t33.5 18.5t22.5 40t8 70v714h-164v142h164v20q0 128 41 216t112.5 142t168.5 77.5t210 23.5q142 0 241 -37t161.5 -109.5t91 -179t29.5 -245.5h-115q-50 0 -93.5 -6t-76 -22t-51.5 -42.5t-19 -67.5q0 -36 12.5 -63t39.5 -50.5t70.5 -47 t105.5 -52.5q64 -30 108 -67.5t71.5 -80.5t39.5 -89t12 -94q0 -87 -27.5 -151.5t-79 -107.5t-126.5 -64t-170 -21q-93 0 -176.5 18.5t-149.5 56.5v248h110q7 -41 24.5 -78t44 -64.5t61.5 -44t77 -16.5q69 0 109.5 36t40.5 102q0 36 -9.5 66.5t-33 58.5t-63.5 55t-101 55 q-75 35 -124.5 75.5t-79 86.5t-42 96t-12.5 103q0 71 24.5 122.5t69 86t105.5 53t133 22.5q-1 94 -16.5 159.5t-44.5 106.5t-70.5 59.5t-94.5 18.5q-52 0 -94.5 -17t-72.5 -52.5t-46 -90t-16 -128.5v-1174h-502z" />
<glyph unicode="&#xe0;" horiz-adv-x="1227" d="M92 313q0 167 114.5 247t344.5 87l168 6v113q0 51 -4 94t-17 74t-38.5 48t-67.5 17q-39 0 -65.5 -16.5t-42.5 -46t-22.5 -70t-6.5 -88.5q-138 0 -207.5 31t-69.5 106q0 56 33.5 96t91 65t134 36.5t163.5 11.5q108 0 188.5 -18.5t134 -59.5t80.5 -107.5t27 -162.5v-522 q0 -42 6.5 -70t20.5 -44.5t38 -23.5t58 -7h8v-109h-381l-43 141h-18q-34 -41 -64 -71.5t-64 -50.5t-76.5 -29.5t-100.5 -9.5q-68 0 -126.5 20t-102 61.5t-68.5 104t-25 147.5zM237 1548v21h321q16 -34 41 -74.5t52.5 -81t55.5 -78.5t50 -67v-27h-139q-48 28 -106.5 69.5 t-113 85.5t-98.5 84.5t-63 67.5zM410 305q0 -88 28 -132t88 -44q44 0 79.5 18.5t61 52.5t39 82.5t13.5 108.5v154l-92 -6q-61 -3 -103 -19.5t-67 -45.5t-36 -71t-11 -98z" />
<glyph unicode="&#xe1;" horiz-adv-x="1227" d="M92 313q0 167 114.5 247t344.5 87l168 6v113q0 51 -4 94t-17 74t-38.5 48t-67.5 17q-39 0 -65.5 -16.5t-42.5 -46t-22.5 -70t-6.5 -88.5q-138 0 -207.5 31t-69.5 106q0 56 33.5 96t91 65t134 36.5t163.5 11.5q108 0 188.5 -18.5t134 -59.5t80.5 -107.5t27 -162.5v-522 q0 -42 6.5 -70t20.5 -44.5t38 -23.5t58 -7h8v-109h-381l-43 141h-18q-34 -41 -64 -71.5t-64 -50.5t-76.5 -29.5t-100.5 -9.5q-68 0 -126.5 20t-102 61.5t-68.5 104t-25 147.5zM410 305q0 -88 28 -132t88 -44q44 0 79.5 18.5t61 52.5t39 82.5t13.5 108.5v154l-92 -6 q-61 -3 -103 -19.5t-67 -45.5t-36 -71t-11 -98zM467 1241v27q22 29 49.5 67t55.5 78.5t52.5 81t40.5 74.5h322v-21q-19 -27 -63 -67.5t-98.5 -84.5t-113 -85.5t-106.5 -69.5h-139z" />
<glyph unicode="&#xe2;" horiz-adv-x="1227" d="M92 313q0 167 114.5 247t344.5 87l168 6v113q0 51 -4 94t-17 74t-38.5 48t-67.5 17q-39 0 -65.5 -16.5t-42.5 -46t-22.5 -70t-6.5 -88.5q-138 0 -207.5 31t-69.5 106q0 56 33.5 96t91 65t134 36.5t163.5 11.5q108 0 188.5 -18.5t134 -59.5t80.5 -107.5t27 -162.5v-522 q0 -42 6.5 -70t20.5 -44.5t38 -23.5t58 -7h8v-109h-381l-43 141h-18q-34 -41 -64 -71.5t-64 -50.5t-76.5 -29.5t-100.5 -9.5q-68 0 -126.5 20t-102 61.5t-68.5 104t-25 147.5zM256 1241v27q24 29 56.5 67t64.5 78.5t60.5 81t44.5 74.5h276q16 -34 44.5 -74.5t60.5 -81 t64 -78.5t56 -67v-27h-141q-21 17 -50 40t-60 48t-60.5 50t-52.5 46q-23 -21 -52.5 -46t-60 -50t-59 -48t-49.5 -40h-142zM410 305q0 -88 28 -132t88 -44q44 0 79.5 18.5t61 52.5t39 82.5t13.5 108.5v154l-92 -6q-61 -3 -103 -19.5t-67 -45.5t-36 -71t-11 -98z" />
<glyph unicode="&#xe3;" horiz-adv-x="1227" d="M92 313q0 167 114.5 247t344.5 87l168 6v113q0 51 -4 94t-17 74t-38.5 48t-67.5 17q-39 0 -65.5 -16.5t-42.5 -46t-22.5 -70t-6.5 -88.5q-138 0 -207.5 31t-69.5 106q0 56 33.5 96t91 65t134 36.5t163.5 11.5q108 0 188.5 -18.5t134 -59.5t80.5 -107.5t27 -162.5v-522 q0 -42 6.5 -70t20.5 -44.5t38 -23.5t58 -7h8v-109h-381l-43 141h-18q-34 -41 -64 -71.5t-64 -50.5t-76.5 -29.5t-100.5 -9.5q-68 0 -126.5 20t-102 61.5t-68.5 104t-25 147.5zM211 1262q3 62 23.5 117t54 96.5t79.5 65.5t101 24t99.5 -20t83 -44.5t72 -44.5t65.5 -20 q22 0 39.5 9t30 24t20 34.5t10.5 40.5h133q-3 -62 -23 -117t-53.5 -96.5t-79 -65.5t-100.5 -24t-99.5 20t-83 44.5t-72 44.5t-66.5 20q-23 0 -40.5 -9t-30 -24t-20 -34.5t-10.5 -40.5h-133zM410 305q0 -88 28 -132t88 -44q44 0 79.5 18.5t61 52.5t39 82.5t13.5 108.5v154 l-92 -6q-61 -3 -103 -19.5t-67 -45.5t-36 -71t-11 -98z" />
<glyph unicode="&#xe4;" horiz-adv-x="1227" d="M92 313q0 167 114.5 247t344.5 87l168 6v113q0 51 -4 94t-17 74t-38.5 48t-67.5 17q-39 0 -65.5 -16.5t-42.5 -46t-22.5 -70t-6.5 -88.5q-138 0 -207.5 31t-69.5 106q0 56 33.5 96t91 65t134 36.5t163.5 11.5q108 0 188.5 -18.5t134 -59.5t80.5 -107.5t27 -162.5v-522 q0 -42 6.5 -70t20.5 -44.5t38 -23.5t58 -7h8v-109h-381l-43 141h-18q-34 -41 -64 -71.5t-64 -50.5t-76.5 -29.5t-100.5 -9.5q-68 0 -126.5 20t-102 61.5t-68.5 104t-25 147.5zM278 1409q0 35 10 59.5t26.5 39.5t38.5 21.5t46 6.5t46 -6.5t39 -21.5t27.5 -39.5t10.5 -59.5 q0 -34 -10.5 -58.5t-27.5 -39.5t-39 -22t-46 -7t-46 7t-38.5 22t-26.5 39.5t-10 58.5zM410 305q0 -88 28 -132t88 -44q44 0 79.5 18.5t61 52.5t39 82.5t13.5 108.5v154l-92 -6q-61 -3 -103 -19.5t-67 -45.5t-36 -71t-11 -98zM698 1409q0 35 10 59.5t27 39.5t39 21.5t47 6.5 q23 0 44.5 -6.5t38.5 -21.5t27.5 -39.5t10.5 -59.5q0 -34 -10.5 -58.5t-27.5 -39.5t-38.5 -22t-44.5 -7q-25 0 -47 7t-39 22t-27 39.5t-10 58.5z" />
<glyph unicode="&#xe5;" horiz-adv-x="1227" d="M92 313q0 167 114.5 247t344.5 87l168 6v113q0 51 -4 94t-17 74t-38.5 48t-67.5 17q-39 0 -65.5 -16.5t-42.5 -46t-22.5 -70t-6.5 -88.5q-138 0 -207.5 31t-69.5 106q0 56 33.5 96t91 65t134 36.5t163.5 11.5q108 0 188.5 -18.5t134 -59.5t80.5 -107.5t27 -162.5v-522 q0 -42 6.5 -70t20.5 -44.5t38 -23.5t58 -7h8v-109h-381l-43 141h-18q-34 -41 -64 -71.5t-64 -50.5t-76.5 -29.5t-100.5 -9.5q-68 0 -126.5 20t-102 61.5t-68.5 104t-25 147.5zM373 1444q0 54 19 96t52.5 70t78.5 42.5t96 14.5t96 -14.5t78.5 -42.5t52.5 -70t19 -96 q0 -55 -19 -96.5t-52.5 -69.5t-78.5 -42.5t-96 -14.5t-96 14.5t-78.5 42.5t-52.5 69.5t-19 96.5zM410 305q0 -88 28 -132t88 -44q44 0 79.5 18.5t61 52.5t39 82.5t13.5 108.5v154l-92 -6q-61 -3 -103 -19.5t-67 -45.5t-36 -71t-11 -98zM498 1444q0 -30 9.5 -51t26 -34.5 t38.5 -19.5t47 -6t47 6t38.5 19.5t26 34.5t9.5 51t-9.5 51t-26 34t-38.5 19t-47 6t-47 -6t-38.5 -19t-26 -34t-9.5 -51z" />
<glyph unicode="&#xe6;" horiz-adv-x="1792" d="M92 313q0 167 114.5 247t344.5 87l168 6v113q0 51 -4 94t-17 74t-38.5 48t-67.5 17q-39 0 -65.5 -16.5t-42.5 -46t-22.5 -70t-6.5 -88.5q-138 0 -207.5 31t-69.5 106q0 56 33.5 96t91 65t134 36.5t163.5 11.5q109 0 190.5 -27t135.5 -89q60 57 135 86.5t166 29.5 q111 0 200 -31.5t151 -93.5t95 -154t33 -214v-105h-672q3 -103 22.5 -177t54.5 -122t84.5 -71t113.5 -23q53 0 98 12.5t81.5 35t63.5 53t45 65.5q56 -30 56 -100q0 -44 -23.5 -83.5t-72.5 -69.5t-124.5 -48t-179.5 -18q-151 0 -260.5 50t-175.5 146q-69 -103 -171 -149.5 t-232 -46.5q-68 0 -126.5 20t-102 61.5t-68.5 104t-25 147.5zM410 305q0 -88 28 -132t88 -44q44 0 79.5 18.5t61 52.5t39 82.5t13.5 108.5v154l-92 -6q-61 -3 -103 -19.5t-67 -45.5t-36 -71t-11 -98zM1038 657h355q0 160 -39 247t-123 87q-85 0 -136.5 -85t-56.5 -249z" />
<glyph unicode="&#xe7;" horiz-adv-x="1079" d="M96 545q0 166 38.5 277t106 178t159.5 95.5t198 28.5q99 0 175 -16.5t127 -45.5t77.5 -68.5t26.5 -84.5q0 -33 -11.5 -64.5t-41 -55.5t-81 -39t-131.5 -15q0 53 -6.5 101t-21.5 84t-40.5 57.5t-64.5 21.5q-45 0 -80.5 -21.5t-61 -73.5t-39 -139t-13.5 -218 q0 -208 57 -311t186 -103q53 0 99.5 12.5t84.5 35t66.5 53t46.5 65.5q25 -15 37 -40.5t12 -53.5q0 -39 -23 -79t-71.5 -72.5t-123.5 -53t-179 -20.5q-113 0 -206.5 29t-160.5 96t-104 175t-37 265zM370 -344q38 -8 75 -12t65 -4q58 0 91.5 20.5t33.5 73.5q0 30 -11.5 49 t-32.5 30.5t-49 17t-61 7.5l43 180h117l-21 -88q50 -4 90.5 -18.5t69 -38.5t44 -57.5t15.5 -73.5q0 -54 -21 -97.5t-59 -74t-91.5 -46.5t-118.5 -16q-16 0 -39 1.5t-48 4.5t-49 7.5t-43 9.5v125z" />
<glyph unicode="&#xe8;" horiz-adv-x="1169" d="M96 543q0 144 34 253t99 182t159.5 109.5t215.5 36.5q111 0 200 -31.5t151 -93.5t95 -154t33 -214v-105h-671q3 -103 22.5 -177t54 -122t84 -71t113.5 -23q53 0 98 12.5t81.5 35t64 53t45.5 65.5q55 -30 55 -100q0 -44 -24 -83.5t-74 -69.5t-125.5 -48t-179.5 -18 q-130 0 -229.5 38t-166.5 110t-101 176.5t-34 238.5zM261 1548v21h321q16 -34 41 -74.5t52.5 -81t55.5 -78.5t50 -67v-27h-139q-48 28 -106.5 69.5t-113 85.5t-98.5 84.5t-63 67.5zM416 657h354q0 78 -9 140t-28.5 105t-50 66t-74.5 23q-86 0 -136.5 -85t-55.5 -249z" />
<glyph unicode="&#xe9;" horiz-adv-x="1169" d="M96 543q0 144 34 253t99 182t159.5 109.5t215.5 36.5q111 0 200 -31.5t151 -93.5t95 -154t33 -214v-105h-671q3 -103 22.5 -177t54 -122t84 -71t113.5 -23q53 0 98 12.5t81.5 35t64 53t45.5 65.5q55 -30 55 -100q0 -44 -24 -83.5t-74 -69.5t-125.5 -48t-179.5 -18 q-130 0 -229.5 38t-166.5 110t-101 176.5t-34 238.5zM416 657h354q0 78 -9 140t-28.5 105t-50 66t-74.5 23q-86 0 -136.5 -85t-55.5 -249zM473 1241v27q22 29 49.5 67t55.5 78.5t52.5 81t40.5 74.5h322v-21q-19 -27 -63 -67.5t-98.5 -84.5t-113 -85.5t-106.5 -69.5h-139z " />
<glyph unicode="&#xea;" horiz-adv-x="1169" d="M96 543q0 144 34 253t99 182t159.5 109.5t215.5 36.5q111 0 200 -31.5t151 -93.5t95 -154t33 -214v-105h-671q3 -103 22.5 -177t54 -122t84 -71t113.5 -23q53 0 98 12.5t81.5 35t64 53t45.5 65.5q55 -30 55 -100q0 -44 -24 -83.5t-74 -69.5t-125.5 -48t-179.5 -18 q-130 0 -229.5 38t-166.5 110t-101 176.5t-34 238.5zM254 1241v27q24 29 56.5 67t64.5 78.5t60.5 81t44.5 74.5h276q16 -34 44.5 -74.5t60.5 -81t64 -78.5t56 -67v-27h-141q-21 17 -50 40t-60 48t-60.5 50t-52.5 46q-23 -21 -52.5 -46t-60 -50t-59 -48t-49.5 -40h-142z M416 657h354q0 78 -9 140t-28.5 105t-50 66t-74.5 23q-86 0 -136.5 -85t-55.5 -249z" />
<glyph unicode="&#xeb;" horiz-adv-x="1169" d="M96 543q0 144 34 253t99 182t159.5 109.5t215.5 36.5q111 0 200 -31.5t151 -93.5t95 -154t33 -214v-105h-671q3 -103 22.5 -177t54 -122t84 -71t113.5 -23q53 0 98 12.5t81.5 35t64 53t45.5 65.5q55 -30 55 -100q0 -44 -24 -83.5t-74 -69.5t-125.5 -48t-179.5 -18 q-130 0 -229.5 38t-166.5 110t-101 176.5t-34 238.5zM281 1409q0 35 10 59.5t26.5 39.5t38.5 21.5t46 6.5t46 -6.5t39 -21.5t27.5 -39.5t10.5 -59.5q0 -34 -10.5 -58.5t-27.5 -39.5t-39 -22t-46 -7t-46 7t-38.5 22t-26.5 39.5t-10 58.5zM416 657h354q0 78 -9 140t-28.5 105 t-50 66t-74.5 23q-86 0 -136.5 -85t-55.5 -249zM701 1409q0 35 10 59.5t27 39.5t39 21.5t47 6.5q23 0 44.5 -6.5t38.5 -21.5t27.5 -39.5t10.5 -59.5q0 -34 -10.5 -58.5t-27.5 -39.5t-38.5 -22t-44.5 -7q-25 0 -47 7t-39 22t-27 39.5t-10 58.5z" />
<glyph unicode="&#xec;" horiz-adv-x="721" d="M-11 1548v21h321q16 -34 41 -74.5t52.5 -81t55.5 -78.5t50 -67v-27h-139q-48 28 -106.5 69.5t-113 85.5t-98.5 84.5t-63 67.5zM35 0v109h24q23 0 48.5 4.5t47 18.5t36 40t14.5 70v622q0 41 -14.5 65.5t-36.5 38t-47.5 17.5t-47.5 4h-24v109h481v-856q0 -44 14.5 -70 t36 -40t47.5 -18.5t48 -4.5h24v-109h-651z" />
<glyph unicode="&#xed;" horiz-adv-x="721" d="M35 0v109h24q23 0 48.5 4.5t47 18.5t36 40t14.5 70v622q0 41 -14.5 65.5t-36.5 38t-47.5 17.5t-47.5 4h-24v109h481v-856q0 -44 14.5 -70t36 -40t47.5 -18.5t48 -4.5h24v-109h-651zM202 1241v27q22 29 49.5 67t55.5 78.5t52.5 81t40.5 74.5h322v-21q-19 -27 -63 -67.5 t-98.5 -84.5t-113 -85.5t-106.5 -69.5h-139z" />
<glyph unicode="&#xee;" horiz-adv-x="721" d="M-30 1241v27q24 29 56.5 67t64.5 78.5t60.5 81t44.5 74.5h276q16 -34 44.5 -74.5t60.5 -81t64 -78.5t56 -67v-27h-141q-21 17 -50 40t-60 48t-60.5 50t-52.5 46q-23 -21 -52.5 -46t-60 -50t-59 -48t-49.5 -40h-142zM35 0v109h24q23 0 48.5 4.5t47 18.5t36 40t14.5 70v622 q0 41 -14.5 65.5t-36.5 38t-47.5 17.5t-47.5 4h-24v109h481v-856q0 -44 14.5 -70t36 -40t47.5 -18.5t48 -4.5h24v-109h-651z" />
<glyph unicode="&#xef;" horiz-adv-x="721" d="M-1 1409q0 35 10 59.5t26.5 39.5t38.5 21.5t46 6.5t46 -6.5t39 -21.5t27.5 -39.5t10.5 -59.5q0 -34 -10.5 -58.5t-27.5 -39.5t-39 -22t-46 -7t-46 7t-38.5 22t-26.5 39.5t-10 58.5zM35 0v109h24q23 0 48.5 4.5t47 18.5t36 40t14.5 70v622q0 41 -14.5 65.5t-36.5 38 t-47.5 17.5t-47.5 4h-24v109h481v-856q0 -44 14.5 -70t36 -40t47.5 -18.5t48 -4.5h24v-109h-651zM419 1409q0 35 10 59.5t27 39.5t39 21.5t47 6.5q23 0 44.5 -6.5t38.5 -21.5t27.5 -39.5t10.5 -59.5q0 -34 -10.5 -58.5t-27.5 -39.5t-38.5 -22t-44.5 -7q-25 0 -47 7t-39 22 t-27 39.5t-10 58.5z" />
<glyph unicode="&#xf0;" horiz-adv-x="1255" d="M96 522q0 136 32.5 237.5t95.5 169t155 101t211 33.5q68 0 126.5 -16t96.5 -39q-11 33 -25 65.5t-34 65t-48 65t-67 64.5l-289 -148v133l182 95q-51 32 -108.5 50.5t-132.5 31.5v129q38 -3 90.5 -14.5t108.5 -29t109.5 -39.5t92.5 -46l258 131v-136l-143 -73 q78 -61 142.5 -140.5t110.5 -175.5t71.5 -206.5t25.5 -233.5q0 -312 -135.5 -464t-398.5 -152q-122 0 -219.5 33t-166 100.5t-105 169.5t-36.5 239zM414 520q0 -101 11.5 -178t37 -128.5t66.5 -78t100 -26.5q58 0 98.5 26.5t66 78t37 128.5t11.5 178q0 105 -11.5 182.5 t-37 128.5t-66.5 76t-100 25q-58 0 -99 -24.5t-66 -75t-36.5 -128t-11.5 -184.5z" />
<glyph unicode="&#xf1;" horiz-adv-x="1366" d="M41 0v109h4q35 0 64 4.5t50.5 19.5t33.5 43t12 74v606q0 43 -10.5 69t-30 40.5t-46.5 19t-61 4.5h-6v109h430l27 -146h10q31 58 65.5 92t73.5 52t82.5 23t91.5 5q79 0 142 -23t106.5 -71t66.5 -122.5t23 -178.5v-475q0 -48 8.5 -76.5t25.5 -43.5t43 -20t61 -5h6v-109 h-455v674q0 66 -8.5 117.5t-28 86.5t-51 53.5t-76.5 18.5q-51 0 -85 -26t-54.5 -69.5t-29.5 -101t-9 -120.5v-391q0 -43 10.5 -69t29.5 -40.5t46.5 -19t61.5 -4.5h6v-109h-629zM264 1262q3 62 23.5 117t54 96.5t79.5 65.5t101 24t99.5 -20t83 -44.5t72 -44.5t65.5 -20 q22 0 39.5 9t30 24t20 34.5t10.5 40.5h133q-3 -62 -23 -117t-53.5 -96.5t-79 -65.5t-100.5 -24t-99.5 20t-83 44.5t-72 44.5t-66.5 20q-23 0 -40.5 -9t-30 -24t-20 -34.5t-10.5 -40.5h-133z" />
<glyph unicode="&#xf2;" horiz-adv-x="1255" d="M96 553q0 289 135.5 430t399.5 141q123 0 220.5 -35t166 -106t105 -178.5t36.5 -251.5q0 -289 -135.5 -431t-398.5 -142q-123 0 -221 35.5t-166.5 106.5t-105 179t-36.5 252zM237 1548v21h321q16 -34 41 -74.5t52.5 -81t55.5 -78.5t50 -67v-27h-139q-48 28 -106.5 69.5 t-113 85.5t-98.5 84.5t-63 67.5zM414 553q0 -109 11.5 -192t37 -139t66.5 -84.5t100 -28.5t99.5 28.5t66 84.5t36.5 139t11 192q0 110 -11.5 192.5t-37 137.5t-66.5 82.5t-100 27.5t-100 -27.5t-66 -82.5t-36 -137.5t-11 -192.5z" />
<glyph unicode="&#xf3;" horiz-adv-x="1255" d="M96 553q0 289 135.5 430t399.5 141q123 0 220.5 -35t166 -106t105 -178.5t36.5 -251.5q0 -289 -135.5 -431t-398.5 -142q-123 0 -221 35.5t-166.5 106.5t-105 179t-36.5 252zM414 553q0 -109 11.5 -192t37 -139t66.5 -84.5t100 -28.5t99.5 28.5t66 84.5t36.5 139t11 192 q0 110 -11.5 192.5t-37 137.5t-66.5 82.5t-100 27.5t-100 -27.5t-66 -82.5t-36 -137.5t-11 -192.5zM504 1241v27q22 29 49.5 67t55.5 78.5t52.5 81t40.5 74.5h322v-21q-19 -27 -63 -67.5t-98.5 -84.5t-113 -85.5t-106.5 -69.5h-139z" />
<glyph unicode="&#xf4;" horiz-adv-x="1255" d="M96 553q0 289 135.5 430t399.5 141q123 0 220.5 -35t166 -106t105 -178.5t36.5 -251.5q0 -289 -135.5 -431t-398.5 -142q-123 0 -221 35.5t-166.5 106.5t-105 179t-36.5 252zM262 1241v27q24 29 56.5 67t64.5 78.5t60.5 81t44.5 74.5h276q16 -34 44.5 -74.5t60.5 -81 t64 -78.5t56 -67v-27h-141q-21 17 -50 40t-60 48t-60.5 50t-52.5 46q-23 -21 -52.5 -46t-60 -50t-59 -48t-49.5 -40h-142zM414 553q0 -109 11.5 -192t37 -139t66.5 -84.5t100 -28.5t99.5 28.5t66 84.5t36.5 139t11 192q0 110 -11.5 192.5t-37 137.5t-66.5 82.5t-100 27.5 t-100 -27.5t-66 -82.5t-36 -137.5t-11 -192.5z" />
<glyph unicode="&#xf5;" horiz-adv-x="1255" d="M96 553q0 289 135.5 430t399.5 141q123 0 220.5 -35t166 -106t105 -178.5t36.5 -251.5q0 -289 -135.5 -431t-398.5 -142q-123 0 -221 35.5t-166.5 106.5t-105 179t-36.5 252zM217 1262q3 62 23.5 117t54 96.5t79.5 65.5t101 24t99.5 -20t83 -44.5t72 -44.5t65.5 -20 q22 0 39.5 9t30 24t20 34.5t10.5 40.5h133q-3 -62 -23 -117t-53.5 -96.5t-79 -65.5t-100.5 -24t-99.5 20t-83 44.5t-72 44.5t-66.5 20q-23 0 -40.5 -9t-30 -24t-20 -34.5t-10.5 -40.5h-133zM414 553q0 -109 11.5 -192t37 -139t66.5 -84.5t100 -28.5t99.5 28.5t66 84.5 t36.5 139t11 192q0 110 -11.5 192.5t-37 137.5t-66.5 82.5t-100 27.5t-100 -27.5t-66 -82.5t-36 -137.5t-11 -192.5z" />
<glyph unicode="&#xf6;" horiz-adv-x="1255" d="M96 553q0 289 135.5 430t399.5 141q123 0 220.5 -35t166 -106t105 -178.5t36.5 -251.5q0 -289 -135.5 -431t-398.5 -142q-123 0 -221 35.5t-166.5 106.5t-105 179t-36.5 252zM293 1409q0 35 10 59.5t26.5 39.5t38.5 21.5t46 6.5t46 -6.5t39 -21.5t27.5 -39.5t10.5 -59.5 q0 -34 -10.5 -58.5t-27.5 -39.5t-39 -22t-46 -7t-46 7t-38.5 22t-26.5 39.5t-10 58.5zM414 553q0 -109 11.5 -192t37 -139t66.5 -84.5t100 -28.5t99.5 28.5t66 84.5t36.5 139t11 192q0 110 -11.5 192.5t-37 137.5t-66.5 82.5t-100 27.5t-100 -27.5t-66 -82.5t-36 -137.5 t-11 -192.5zM713 1409q0 35 10 59.5t27 39.5t39 21.5t47 6.5q23 0 44.5 -6.5t38.5 -21.5t27.5 -39.5t10.5 -59.5q0 -34 -10.5 -58.5t-27.5 -39.5t-38.5 -22t-44.5 -7q-25 0 -47 7t-39 22t-27 39.5t-10 58.5z" />
<glyph unicode="&#xf7;" d="M133 659v146h879v-146h-879zM459 344q0 35 8.5 59t24 38.5t36.5 21t45 6.5t45 -6.5t36.5 -21t24.5 -38.5t9 -59q0 -34 -9 -58t-24.5 -39t-36.5 -21.5t-45 -6.5q-49 0 -81.5 28t-32.5 97zM459 1120q0 35 8.5 59t24 38.5t36.5 21t45 6.5t45 -6.5t36.5 -21t24.5 -38.5t9 -59 q0 -34 -9 -58t-24.5 -39t-36.5 -21.5t-45 -6.5q-49 0 -81.5 28t-32.5 97z" />
<glyph unicode="&#xf8;" horiz-adv-x="1255" d="M96 553q0 289 135.5 430t399.5 141q72 0 136 -12t118 -37l65 105h144l-105 -172q82 -72 126 -184t44 -271q0 -289 -135.5 -431t-398.5 -142q-138 0 -242 43l-66 -105h-145l102 168q-86 71 -132 187t-46 280zM414 553q0 -63 3 -117.5t11 -99.5l352 571q-52 86 -153 86 q-59 0 -100 -27.5t-66 -82.5t-36 -137.5t-11 -192.5zM481 184q51 -75 148 -75q59 0 99.5 28.5t66 84.5t36.5 139t11 192q0 56 -3 104.5t-10 92.5z" />
<glyph unicode="&#xf9;" horiz-adv-x="1366" d="M53 989v109h455v-656q0 -66 7.5 -119t25.5 -90.5t48 -58t75 -20.5q49 0 84.5 21.5t58 62t33 98t10.5 129.5v393q0 45 -12 71t-32 39.5t-47 17t-57 3.5h-6v109h465v-860q0 -45 10.5 -70.5t28.5 -38.5t43 -16.5t55 -3.5h17v-109h-408l-45 145h-10q-31 -53 -67 -85.5 t-77 -50t-86.5 -23.5t-93.5 -6q-160 0 -245.5 99t-85.5 306v459q0 45 -8 73t-25 44t-43.5 22t-63.5 6h-4zM253 1548v21h321q16 -34 41 -74.5t52.5 -81t55.5 -78.5t50 -67v-27h-139q-48 28 -106.5 69.5t-113 85.5t-98.5 84.5t-63 67.5z" />
<glyph unicode="&#xfa;" horiz-adv-x="1366" d="M53 989v109h455v-656q0 -66 7.5 -119t25.5 -90.5t48 -58t75 -20.5q49 0 84.5 21.5t58 62t33 98t10.5 129.5v393q0 45 -12 71t-32 39.5t-47 17t-57 3.5h-6v109h465v-860q0 -45 10.5 -70.5t28.5 -38.5t43 -16.5t55 -3.5h17v-109h-408l-45 145h-10q-31 -53 -67 -85.5 t-77 -50t-86.5 -23.5t-93.5 -6q-160 0 -245.5 99t-85.5 306v459q0 45 -8 73t-25 44t-43.5 22t-63.5 6h-4zM527 1241v27q22 29 49.5 67t55.5 78.5t52.5 81t40.5 74.5h322v-21q-19 -27 -63 -67.5t-98.5 -84.5t-113 -85.5t-106.5 -69.5h-139z" />
<glyph unicode="&#xfb;" horiz-adv-x="1366" d="M53 989v109h455v-656q0 -66 7.5 -119t25.5 -90.5t48 -58t75 -20.5q49 0 84.5 21.5t58 62t33 98t10.5 129.5v393q0 45 -12 71t-32 39.5t-47 17t-57 3.5h-6v109h465v-860q0 -45 10.5 -70.5t28.5 -38.5t43 -16.5t55 -3.5h17v-109h-408l-45 145h-10q-31 -53 -67 -85.5 t-77 -50t-86.5 -23.5t-93.5 -6q-160 0 -245.5 99t-85.5 306v459q0 45 -8 73t-25 44t-43.5 22t-63.5 6h-4zM295 1241v27q24 29 56.5 67t64.5 78.5t60.5 81t44.5 74.5h276q16 -34 44.5 -74.5t60.5 -81t64 -78.5t56 -67v-27h-141q-21 17 -50 40t-60 48t-60.5 50t-52.5 46 q-23 -21 -52.5 -46t-60 -50t-59 -48t-49.5 -40h-142z" />
<glyph unicode="&#xfc;" horiz-adv-x="1366" d="M53 989v109h455v-656q0 -66 7.5 -119t25.5 -90.5t48 -58t75 -20.5q49 0 84.5 21.5t58 62t33 98t10.5 129.5v393q0 45 -12 71t-32 39.5t-47 17t-57 3.5h-6v109h465v-860q0 -45 10.5 -70.5t28.5 -38.5t43 -16.5t55 -3.5h17v-109h-408l-45 145h-10q-31 -53 -67 -85.5 t-77 -50t-86.5 -23.5t-93.5 -6q-160 0 -245.5 99t-85.5 306v459q0 45 -8 73t-25 44t-43.5 22t-63.5 6h-4zM332 1409q0 35 10 59.5t26.5 39.5t38.5 21.5t46 6.5t46 -6.5t39 -21.5t27.5 -39.5t10.5 -59.5q0 -34 -10.5 -58.5t-27.5 -39.5t-39 -22t-46 -7t-46 7t-38.5 22 t-26.5 39.5t-10 58.5zM752 1409q0 35 10 59.5t27 39.5t39 21.5t47 6.5q23 0 44.5 -6.5t38.5 -21.5t27.5 -39.5t10.5 -59.5q0 -34 -10.5 -58.5t-27.5 -39.5t-38.5 -22t-44.5 -7q-25 0 -47 7t-39 22t-27 39.5t-10 58.5z" />
<glyph unicode="&#xfd;" horiz-adv-x="1186" d="M0 977v121h584v-109q-60 0 -94.5 -15.5t-34.5 -60.5q0 -17 7 -40.5t13 -38.5q18 -43 37.5 -93.5t38 -101t35.5 -97.5t30 -83q15 -39 25 -70.5t16.5 -57t10.5 -47t6 -42.5q2 21 8 46.5t13 49t14 42t10 26.5l135 401q4 10 7.5 23.5t6.5 27.5t4.5 27t1.5 22q0 47 -39 64.5 t-110 17.5v109h461v-109q-31 0 -54.5 -7t-42.5 -24.5t-35 -46t-32 -71.5q-36 -102 -75 -208t-78.5 -212.5t-79 -212t-76.5 -207.5q-36 -99 -68 -174t-67.5 -130t-78.5 -91t-100 -57.5t-132.5 -30.5t-176.5 -9h-35v119q107 0 182 26t127 74t85.5 115t58.5 148l-369 901 q-12 29 -27 46t-32 26t-37 11.5t-43 2.5zM463 1241v27q22 29 49.5 67t55.5 78.5t52.5 81t40.5 74.5h322v-21q-19 -27 -63 -67.5t-98.5 -84.5t-113 -85.5t-106.5 -69.5h-139z" />
<glyph unicode="&#xfe;" horiz-adv-x="1321" d="M27 -383h24q22 0 48 4.5t47.5 18.5t36 40t14.5 70v1555q0 47 -10.5 75t-29 43t-44 20t-54.5 5h-14v108h463v-376q0 -29 -4 -70.5t-9 -79.5q-5 -45 -12 -92h9q22 40 51.5 73t68 57t86.5 37t107 13q102 0 180.5 -33.5t131.5 -104t80.5 -178.5t27.5 -257q0 -148 -27 -255.5 t-79.5 -177.5t-129 -103.5t-176.5 -33.5q-117 0 -190 44.5t-117 119.5h-14q4 -47 8 -92q3 -38 5.5 -81t2.5 -75v-141q0 -44 14.5 -70t36 -40t47 -18.5t47.5 -4.5h45v-109h-671v109zM508 545q0 -106 10 -184.5t34 -130.5t64 -77.5t101 -25.5q103 0 147.5 103.5t44.5 312.5 q0 204 -44.5 313t-145.5 109q-62 0 -102.5 -27.5t-64.5 -81t-34 -132t-10 -179.5z" />
<glyph unicode="&#xff;" horiz-adv-x="1186" d="M0 977v121h584v-109q-60 0 -94.5 -15.5t-34.5 -60.5q0 -17 7 -40.5t13 -38.5q18 -43 37.5 -93.5t38 -101t35.5 -97.5t30 -83q15 -39 25 -70.5t16.5 -57t10.5 -47t6 -42.5q2 21 8 46.5t13 49t14 42t10 26.5l135 401q4 10 7.5 23.5t6.5 27.5t4.5 27t1.5 22q0 47 -39 64.5 t-110 17.5v109h461v-109q-31 0 -54.5 -7t-42.5 -24.5t-35 -46t-32 -71.5q-36 -102 -75 -208t-78.5 -212.5t-79 -212t-76.5 -207.5q-36 -99 -68 -174t-67.5 -130t-78.5 -91t-100 -57.5t-132.5 -30.5t-176.5 -9h-35v119q107 0 182 26t127 74t85.5 115t58.5 148l-369 901 q-12 29 -27 46t-32 26t-37 11.5t-43 2.5zM266 1409q0 35 10 59.5t26.5 39.5t38.5 21.5t46 6.5t46 -6.5t39 -21.5t27.5 -39.5t10.5 -59.5q0 -34 -10.5 -58.5t-27.5 -39.5t-39 -22t-46 -7t-46 7t-38.5 22t-26.5 39.5t-10 58.5zM686 1409q0 35 10 59.5t27 39.5t39 21.5t47 6.5 q23 0 44.5 -6.5t38.5 -21.5t27.5 -39.5t10.5 -59.5q0 -34 -10.5 -58.5t-27.5 -39.5t-38.5 -22t-44.5 -7q-25 0 -47 7t-39 22t-27 39.5t-10 58.5z" />
<glyph unicode="&#x152;" horiz-adv-x="2087" d="M113 735q0 170 43 308.5t129.5 236.5t217 151.5t306.5 53.5q53 0 112.5 -6t104.5 -17h918l8 -377h-144l-10 97q-8 75 -38 115t-93 40h-344v-512h485v-123h-485v-577h410q31 0 53 11.5t37.5 32.5t25 49.5t15.5 62.5l16 96h141l-14 -377h-987q-45 -9 -103.5 -14.5 t-109.5 -5.5q-175 0 -305.5 54t-216.5 153t-129 238.5t-43 309.5zM457 733q0 -147 19 -262t61 -194.5t108.5 -121.5t161.5 -42q59 0 105.5 15t84.5 44v1118q-34 26 -82.5 44t-105.5 18q-96 0 -163 -41.5t-109 -121t-61 -194.5t-19 -262z" />
<glyph unicode="&#x153;" horiz-adv-x="1915" d="M96 553q0 289 135.5 430t399.5 141q114 0 206 -39.5t160 -117.5q63 78 152 117.5t201 39.5q111 0 200 -31.5t151 -93.5t95 -154t33 -214v-105h-670q0 -6 -1 -12t-1 -12q5 -97 25.5 -166.5t55 -114.5t83.5 -66.5t111 -21.5q53 0 98 12.5t81.5 35t63.5 53t45 65.5 q56 -30 56 -100q0 -44 -23.5 -83.5t-72.5 -69.5t-124.5 -48t-179.5 -18q-118 0 -211 40t-161 117q-67 -81 -162.5 -119t-216.5 -38q-123 0 -221 35.5t-166.5 106.5t-105 179t-36.5 252zM414 553q0 -109 11.5 -192t37 -139t66.5 -84.5t100 -28.5q56 0 95.5 26t65 77t38 127.5 t14.5 176.5v55q-1 211 -50.5 316.5t-164.5 105.5q-59 0 -100 -27.5t-66 -82.5t-36 -137.5t-11 -192.5zM1161 657h355q0 160 -39 247t-123 87q-85 0 -136.5 -85t-56.5 -249z" />
<glyph unicode="&#x178;" horiz-adv-x="1419" d="M0 1354v108h686v-108h-35q-62 0 -92.5 -25t-30.5 -67q0 -26 9.5 -56.5t21.5 -56.5l152 -301q32 -65 52.5 -115t37.5 -98q21 54 48.5 117.5t61.5 132.5l119 245q22 45 28.5 75.5t6.5 47.5q0 53 -33.5 77t-101.5 24h-47v108h536v-108h-39q-26 0 -44.5 -7t-35 -25t-34 -49 t-41.5 -79l-348 -678v-280q0 -45 9 -70t24.5 -38t36 -16t44.5 -3h101v-109h-756v109h96q25 0 46.5 3t37.5 15.5t25.5 37.5t9.5 68v285l-379 727q-15 30 -28.5 51t-29.5 33.5t-36.5 18.5t-50.5 6h-27zM401 1747q0 35 10 59.5t26.5 39.5t38.5 21.5t46 6.5t46 -6.5t39 -21.5 t27.5 -39.5t10.5 -59.5q0 -34 -10.5 -58.5t-27.5 -39.5t-39 -22t-46 -7t-46 7t-38.5 22t-26.5 39.5t-10 58.5zM821 1747q0 35 10 59.5t27 39.5t39 21.5t47 6.5q23 0 44.5 -6.5t38.5 -21.5t27.5 -39.5t10.5 -59.5q0 -34 -10.5 -58.5t-27.5 -39.5t-38.5 -22t-44.5 -7 q-25 0 -47 7t-39 22t-27 39.5t-10 58.5z" />
<glyph unicode="&#x2c6;" horiz-adv-x="1182" d="M227 1241v27q24 29 56.5 67t64.5 78.5t60.5 81t44.5 74.5h276q16 -34 44.5 -74.5t60.5 -81t64 -78.5t56 -67v-27h-141q-21 17 -50 40t-60 48t-60.5 50t-52.5 46q-23 -21 -52.5 -46t-60 -50t-59 -48t-49.5 -40h-142z" />
<glyph unicode="&#x2dc;" horiz-adv-x="1182" d="M184 1262q3 62 23.5 117t54 96.5t79.5 65.5t101 24t99.5 -20t83 -44.5t72 -44.5t65.5 -20q22 0 39.5 9t30 24t20 34.5t10.5 40.5h133q-3 -62 -23 -117t-53.5 -96.5t-79 -65.5t-100.5 -24t-99.5 20t-83 44.5t-72 44.5t-66.5 20q-23 0 -40.5 -9t-30 -24t-20 -34.5 t-10.5 -40.5h-133z" />
<glyph unicode="&#x2000;" horiz-adv-x="953" />
<glyph unicode="&#x2001;" horiz-adv-x="1907" />
<glyph unicode="&#x2002;" horiz-adv-x="953" />
<glyph unicode="&#x2003;" horiz-adv-x="1907" />
<glyph unicode="&#x2004;" horiz-adv-x="635" />
<glyph unicode="&#x2005;" horiz-adv-x="476" />
<glyph unicode="&#x2006;" horiz-adv-x="317" />
<glyph unicode="&#x2007;" horiz-adv-x="317" />
<glyph unicode="&#x2008;" horiz-adv-x="238" />
<glyph unicode="&#x2009;" horiz-adv-x="381" />
<glyph unicode="&#x200a;" horiz-adv-x="105" />
<glyph unicode="&#x2010;" horiz-adv-x="635" d="M51 451v215h533v-215h-533z" />
<glyph unicode="&#x2011;" horiz-adv-x="635" d="M51 451v215h533v-215h-533z" />
<glyph unicode="&#x2012;" horiz-adv-x="635" d="M51 451v215h533v-215h-533z" />
<glyph unicode="&#x2013;" horiz-adv-x="1024" d="M-10 477v146h1044v-146h-1044z" />
<glyph unicode="&#x2014;" horiz-adv-x="2048" d="M-10 477v146h2068v-146h-2068z" />
<glyph unicode="&#x2018;" horiz-adv-x="573" d="M115 1061q0 65 20 126t63.5 113t113 93.5t169.5 68.5v-106q-45 -16 -78.5 -32t-56 -34.5t-34 -41t-11.5 -52.5q0 -20 11 -32t28 -23t36 -22.5t36 -29t28 -44.5t11 -68q0 -69 -42.5 -105t-105.5 -36q-87 0 -137.5 60t-50.5 165z" />
<glyph unicode="&#x2019;" horiz-adv-x="573" d="M92 836v106q45 16 78.5 32t56 34.5t34 41t11.5 52.5q0 20 -11 32t-27.5 23t-36 22.5t-36 29.5t-27.5 44.5t-11 67.5q0 69 42 105t105 36q87 0 138 -60t51 -165q0 -65 -20 -126t-64 -113t-113.5 -93.5t-169.5 -68.5z" />
<glyph unicode="&#x201a;" horiz-adv-x="602" d="M92 -209q45 16 78.5 32t56 34.5t34 41t11.5 52.5q0 19 -11 31.5t-27.5 23.5t-36 22.5t-36 29.5t-27.5 44.5t-11 67.5q0 69 42 105t105 36q87 0 138 -60t51 -165q0 -65 -20 -126t-64 -113t-113.5 -93.5t-169.5 -68.5v106z" />
<glyph unicode="&#x201c;" horiz-adv-x="1001" d="M115 1061q0 65 20 126t63.5 113t113 93.5t169.5 68.5v-106q-45 -16 -78.5 -32t-56 -34.5t-34 -41t-11.5 -52.5q0 -20 11 -32t28 -23t36 -22.5t36 -29t28 -44.5t11 -68q0 -69 -42.5 -105t-105.5 -36q-87 0 -137.5 60t-50.5 165zM543 1061q0 65 20 126t63.5 113t113 93.5 t169.5 68.5v-106q-44 -16 -78 -32t-56.5 -34.5t-34 -41t-11.5 -52.5q0 -20 11 -32t28 -23t36 -22.5t36 -29t28 -44.5t11 -68q0 -69 -42.5 -105t-105.5 -36q-87 0 -137.5 60t-50.5 165z" />
<glyph unicode="&#x201d;" horiz-adv-x="1001" d="M92 836v106q45 16 78.5 32t56 34.5t34 41t11.5 52.5q0 20 -11 32t-27.5 23t-36 22.5t-36 29.5t-27.5 44.5t-11 67.5q0 69 42 105t105 36q87 0 138 -60t51 -165q0 -65 -20 -126t-64 -113t-113.5 -93.5t-169.5 -68.5zM520 836v106q45 16 78.5 32t56 34.5t34 41t11.5 52.5 q0 20 -11 32t-27.5 23t-36 22.5t-36 29.5t-27.5 44.5t-11 67.5q0 69 42 105t105 36q87 0 138 -60t51 -165q0 -65 -20 -126t-64 -113t-113.5 -93.5t-169.5 -68.5z" />
<glyph unicode="&#x201e;" horiz-adv-x="1001" d="M92 -209q45 16 78.5 32t56 34.5t34 41t11.5 52.5q0 19 -11 31.5t-27.5 23.5t-36 22.5t-36 29.5t-27.5 44.5t-11 67.5q0 69 42 105t105 36q87 0 138 -60t51 -165q0 -65 -20 -126t-64 -113t-113.5 -93.5t-169.5 -68.5v106zM520 -209q45 16 78.5 32t56 34.5t34 41t11.5 52.5 q0 19 -11 31.5t-27.5 23.5t-36 22.5t-36 29.5t-27.5 44.5t-11 67.5q0 69 42 105t105 36q87 0 138 -60t51 -165q0 -65 -20 -126t-64 -113t-113.5 -93.5t-169.5 -68.5v106z" />
<glyph unicode="&#x2022;" horiz-adv-x="819" d="M115 729q0 92 22 154.5t61.5 100t93.5 53.5t118 16q60 0 114 -16t94 -53.5t63.5 -100t23.5 -154.5q0 -91 -23.5 -153t-63.5 -100t-94 -54t-114 -16q-64 0 -118 16t-93.5 54t-61.5 100t-22 153z" />
<glyph unicode="&#x2026;" horiz-adv-x="1868" d="M143 147q0 47 13 78.5t35.5 50.5t53.5 27t66 8q34 0 64.5 -8t53.5 -27t36.5 -50.5t13.5 -78.5q0 -46 -13.5 -77t-36.5 -50t-53.5 -27.5t-64.5 -8.5q-35 0 -66 8.5t-53.5 27.5t-35.5 50t-13 77zM766 147q0 47 13 78.5t35.5 50.5t53.5 27t66 8q34 0 64.5 -8t53.5 -27 t36.5 -50.5t13.5 -78.5q0 -46 -13.5 -77t-36.5 -50t-53.5 -27.5t-64.5 -8.5q-35 0 -66 8.5t-53.5 27.5t-35.5 50t-13 77zM1389 147q0 47 13 78.5t35.5 50.5t53 27t65.5 8q34 0 64.5 -8t53.5 -27t36.5 -50.5t13.5 -78.5q0 -46 -13.5 -77t-36.5 -50t-53.5 -27.5t-64.5 -8.5 q-35 0 -65.5 8.5t-53 27.5t-35.5 50t-13 77z" />
<glyph unicode="&#x202f;" horiz-adv-x="381" />
<glyph unicode="&#x2039;" horiz-adv-x="723" d="M133 500v106l313 357h144l-207 -410l207 -410h-144z" />
<glyph unicode="&#x203a;" horiz-adv-x="723" d="M133 143l207 410l-207 410h143l314 -357v-106l-314 -357h-143z" />
<glyph unicode="&#x205f;" horiz-adv-x="476" />
<glyph unicode="&#x20ac;" d="M55 543v127h109v63v64h-109v127h119q18 159 68 265.5t123 171t164.5 91.5t193.5 27q91 0 162.5 -18t121.5 -50t76.5 -75t26.5 -93q0 -35 -16.5 -66.5t-49 -55.5t-79.5 -38t-109 -14q0 48 -7.5 98t-25.5 90.5t-47.5 66.5t-73.5 26q-43 0 -81.5 -18t-69 -65.5t-51 -130 t-29.5 -212.5h377v-127h-383v-68v-59h301v-127h-291q17 -206 90.5 -308t212.5 -102q49 0 91.5 12.5t77.5 35t61.5 53t44.5 65.5q21 -17 32 -41.5t11 -52.5q0 -39 -19 -79t-61.5 -72.5t-111 -53t-167.5 -20.5q-105 0 -198 30.5t-167 97.5t-124.5 174t-71.5 261h-121z" />
<glyph unicode="&#x2122;" horiz-adv-x="1710" d="M55 1276l6 186h598l7 -186h-60l-8 49q-4 29 -21 50t-61 22h-94v-525q0 -21 6.5 -33t17 -19t25 -9t29.5 -2h32v-55h-348v55h35q15 0 29 2t24.5 8t16.5 17.5t6 29.5v531h-90q-22 -1 -37 -6.5t-24 -15.5t-14 -22.5t-7 -27.5l-8 -49h-60zM700 754v55h21q31 0 54.5 10t25.5 47 v482q-1 19 -7.5 30.5t-17.5 17.5t-25.5 7.5t-29.5 1.5h-21v57h236l225 -567l232 567h231v-57h-22q-17 0 -31.5 -2t-25 -8t-16 -18.5t-5.5 -33.5v-471q0 -21 5.5 -33t16 -19t25 -9t31.5 -2h22v-55h-303v55q35 0 56 10t24 45v457l-232 -567h-71l-232 569v-451q0 -41 21 -52 t61 -11v-55h-248z" />
<glyph unicode="&#xe000;" horiz-adv-x="1100" d="M0 0v1100h1100v-1100h-1100z" />
<glyph unicode="&#xfb01;" horiz-adv-x="1473" d="M39 0v109h45q22 0 47.5 4.5t47 18.5t36 40t14.5 70v716h-182v140h182v12q0 111 32.5 197.5t100.5 146t172 90.5t248 31q128 0 214.5 -12t139.5 -35t76 -56.5t23 -76.5q0 -39 -17 -70.5t-53.5 -54t-94 -35t-138.5 -12.5q0 28 -8 68.5t-29 77.5t-58 63t-96 26 q-99 0 -149.5 -63t-50.5 -199v-98h727v-856q0 -44 14.5 -70t36 -40t47 -18.5t47.5 -4.5h25v-109h-652v109h25q22 0 47.5 4.5t47 18.5t36 40t14.5 70v716h-415v-716q0 -44 14.5 -70t36 -40t47 -18.5t47.5 -4.5h55v-109h-702z" />
<glyph unicode="&#xfb02;" horiz-adv-x="1473" d="M39 0v109h45q22 0 47.5 4.5t47 18.5t36 40t14.5 70v716h-182v140h182v12q0 111 32.5 197.5t100.5 146t172 90.5t248 31q63 0 119.5 -4.5t104.5 -14.5h262v-1314q0 -44 14.5 -70t36 -40t47 -18.5t47.5 -4.5h25v-109h-631v109h4q22 0 47.5 4.5t47 18.5t36 40t14.5 70v964 q-2 31 -15 74t-39 82.5t-65.5 67.5t-95.5 28q-99 0 -149.5 -63t-50.5 -199v-98h256v-140h-256v-716q0 -44 14.5 -70t36 -40t47 -18.5t47.5 -4.5h35v-109h-682z" />
<glyph unicode="&#xfb03;" horiz-adv-x="2200" d="M39 0v109h45q22 0 47.5 4.5t47 18.5t36 40t14.5 70v716h-182v140h182v16q0 220 102 330t316 110q96 0 156 -15t93.5 -38t45.5 -49.5t12 -50.5q0 -69 -55.5 -99t-161.5 -30q0 24 -4 53t-14.5 54t-28 42t-45.5 17q-24 0 -43 -13t-32.5 -47.5t-21 -95t-7.5 -154.5v-30h415 v12q0 111 32.5 197.5t100.5 146t172 90.5t248 31q127 0 214 -12t140 -35t76 -56.5t23 -76.5q0 -39 -17 -70.5t-53.5 -54t-94 -35t-138.5 -12.5q0 28 -8 68.5t-29 77.5t-58.5 63t-95.5 26q-99 0 -149.5 -63t-50.5 -199v-98h727v-856q0 -44 14.5 -70t36 -40t47 -18.5 t47.5 -4.5h25v-109h-652v109h25q22 0 47.5 4.5t47 18.5t36 40t14.5 70v716h-415v-716q0 -44 14.5 -70t36 -40t47 -18.5t47.5 -4.5h55v-109h-682v109h25q22 0 47.5 4.5t47 18.5t36 40t14.5 70v716h-415v-716q0 -44 14.5 -70t36 -40t47 -18.5t47.5 -4.5h55v-109h-702z" />
<glyph unicode="&#xfb04;" horiz-adv-x="2200" d="M39 0v109h45q22 0 47.5 4.5t47 18.5t36 40t14.5 70v716h-182v140h182v16q0 220 102 330t316 110q96 0 156 -15t93.5 -38t45.5 -49.5t12 -50.5q0 -69 -55.5 -99t-161.5 -30q0 24 -4 53t-14.5 54t-28 42t-45.5 17q-24 0 -43 -13t-32.5 -47.5t-21 -95t-7.5 -154.5v-30h415 v12q0 111 32.5 197.5t100.5 146t172 90.5t248 31q63 0 119.5 -4.5t104.5 -14.5h262v-1314q0 -44 14.5 -70t36 -40t47 -18.5t47.5 -4.5h25v-109h-631v109h4q22 0 47.5 4.5t47 18.5t36 40t14.5 70v964q-2 31 -15 74t-39 82.5t-66 67.5t-95 28q-99 0 -149.5 -63t-50.5 -199v-98 h256v-140h-256v-716q0 -44 14.5 -70t36 -40t47 -18.5t47.5 -4.5h35v-109h-662v109h25q22 0 47.5 4.5t47 18.5t36 40t14.5 70v716h-415v-716q0 -44 14.5 -70t36 -40t47 -18.5t47.5 -4.5h35v-109h-682z" />
</font>
</defs>
</svg>
